<?xml version="1.0" standalone="no"?>
<!DOCTYPE svg PUBLIC "-//W3C//DTD SVG 1.1//EN" "http://www.w3.org/Graphics/SVG/1.1/DTD/svg11.dtd" >
<svg xmlns="http://www.w3.org/2000/svg" xmlns:xlink="http://www.w3.org/1999/xlink" version="1.1">
<metadata>
Created by FontForge 20161003 at Sat Dec 15 14:48:02 2018
 By www-data
Copr.1991 The Ensched  Font Foundry
</metadata>
<defs>
<font id="TriniteNo1-BoldTab" horiz-adv-x="500" >
  <font-face 
    font-family="TriniteNo1"
    font-weight="400"
    font-stretch="normal"
    units-per-em="1000"
    panose-1="2 0 5 3 8 0 0 2 0 3"
    ascent="800"
    descent="-200"
    x-height="395"
    cap-height="590"
    bbox="-192 -282 863 746"
    underline-thickness="61"
    underline-position="213"
    unicode-range="U+0020-FB02"
  />
<missing-glyph horiz-adv-x="280" 
 />
    <glyph glyph-name="fi" unicode="fi" horiz-adv-x="148" 
d="M-104 376q13 62 29 95.5t44 54.5q11 9 22 14q21 12 40 18t51 12q35 7 69.5 10t75.5 3q36 0 36 -7v-1l-11 -43q-2 -6 -6 -9q-1 0 -1.5 -0.5t-1.5 -0.5h-4.5t-13.5 -1l-23 -1h-11t-16 -1q-26 -2 -45 -3q-39 -3 -69.5 -12t-59.5 -26q-52 -29 -53 -73z" />
    <glyph glyph-name="fl" unicode="fl" horiz-adv-x="148" 
d="M304 134l-6 -13q-20 -42 -37 -67t-38 -38q-15 -9 -38 -16q-14 -4 -30 -5t-46 -1h-37l-87 3l-68 3q-21 1 -33.5 5.5t-20.5 15.5q-17 20 -17 41v4l22 -1q23 -1 38.5 -2.5t23.5 -1.5q10 -1 28.5 -1h60.5q33 0 55 0.5t38 1t30.5 1.5t32.5 2q17 2 28 4t21 7q15 8 23 19.5
t11 32.5z" />
    <glyph glyph-name=".notdef" horiz-adv-x="280" 
 />
    <glyph glyph-name=".null" horiz-adv-x="0" 
 />
    <glyph glyph-name="nonmarkingreturn" horiz-adv-x="204" 
 />
    <glyph glyph-name="space" unicode=" " horiz-adv-x="204" 
 />
    <glyph glyph-name="space" unicode="&#xa0;" horiz-adv-x="204" 
 />
    <glyph glyph-name="exclam" unicode="!" horiz-adv-x="259" 
d="M212 72q0 -32 -22.5 -54.5t-54.5 -22.5t-54 22.5t-22 54.5t22 54t54 22t54.5 -22t22.5 -54zM46 575q12 2 21 3t15 2q5 1 23 4.5t50 9.5q16 3 25.5 5t17 3.5t14.5 3.5t18 5q-4 -6 -6.5 -10.5t-4 -9.5t-3.5 -11t-4 -16q-2 -12 -4.5 -24t-4.5 -23q-4 -24 -10 -65.5
t-11 -92.5l-9 -91q-3 -29 -3 -40q0 -28 9 -35l-16 -5q-17 -5 -24.5 -6t-15.5 -1q-19 0 -25 12q-5 6 -6 13q-2 6 -3.5 13t-2.5 16.5t-1.5 24t-1.5 35.5l-3 73l-3 97q-1 35 -4.5 52.5t-10.5 27.5q-5 9 -16 12q-1 1 -4 1h-2z" />
    <glyph glyph-name="quotedbl" unicode="&#x22;" horiz-adv-x="412" 
d="M190 349q5 6 7.5 9.5t6.5 9.5q10 19 21 42q14 29 24.5 55.5t22.5 66.5l9 29q2 8 4 13t4 8q7 17 24 22q18 5 61 5q20 0 27.5 -4.5t7.5 -16.5q0 -18 -30 -66q-36 -59 -61 -92.5t-49 -55.5q-15 -14 -30.5 -19t-48.5 -6zM-7 349q5 6 7.5 9.5t6.5 9.5q10 19 21 42
q14 29 24.5 55.5t22.5 66.5l9 29q2 8 4 13t4 8q7 17 24 22q18 5 61 5q20 0 27.5 -4.5t7.5 -16.5q0 -18 -30 -66q-36 -59 -61 -92.5t-49 -55.5q-15 -14 -30.5 -19t-48.5 -6z" />
    <glyph glyph-name="numbersign" unicode="#" horiz-adv-x="551" 
d="M334 275h-107l-10 -102h107zM435 610q-7 -16 -14 -61t-16 -117l-13 -103h30q47 0 75 3t52 11q-15 -26 -24 -36.5t-21 -17.5q-5 -3 -10.5 -5t-12.5 -4q-20 -5 -34 -5q-2 -1 -12 -0.5t-27 -0.5l-22 -1l-11 -101h33q38 0 71 4t48 11q-10 -20 -18 -31.5t-21 -19.5
q-18 -12 -40.5 -16.5t-60.5 -4.5h-18l-8 -86q-4 -41 -6 -71t-2 -53q0 -26 1.5 -40t5.5 -27q-12 -3 -18.5 -4.5t-14.5 -1.5q-16 0 -22 10t-6 35q0 24 3 71.5t9 107.5l6 61h-106l-10 -104l-7 -89q-1 -9 -1 -17.5v-17.5q0 -20 1.5 -30t6.5 -20q-17 -4 -25 -5t-13 -1
q-14 0 -19 9t-5 32q0 8 0.5 19t1.5 25l9 114l9 86h-36h-7q-34 0 -57.5 -1.5t-39.5 -6.5l29 59q4 1 8 1q11 2 29 1.5t53 1.5l27 1l11 103l-28 1h-13q-27 0 -53 -2t-40 -5l29 57q11 1 18 1.5t27 0.5h6l60 -1l6 56l12 98q9 76 15 107q1 1 3 13l58 8q-2 -5 -3 -9t-2 -7
q-4 -18 -9.5 -51.5t-12.5 -90.5l-15 -124h106q2 20 3.5 33.5t3 28.5t4 35.5t7.5 53.5q3 27 5.5 44.5t4 30t3.5 23t5 25.5z" />
    <glyph glyph-name="dollar" unicode="$" horiz-adv-x="444" 
d="M248 62q26 2 43.5 20t17.5 43q0 23 -14 42.5t-46 40.5v-11v-18zM217 488q-26 -2 -42 -17t-16 -38q0 -19 13 -35t42 -33q0 6 -0.5 9t-0.5 7q0 3 0.5 7t0.5 9zM269 612q-2 -5 -2.5 -7l-1.5 -6q-2 -6 -2 -10q-3 -21 -3 -23l-1 -16h21q39 0 62 -4t40 -13q21 -11 21 -26
q0 -19 -20 -32t-46 -13q-11 0 -24 2.5t-31 10.5l-10 4q-5 2 -9 3q-2 1 -3 1t-3 1l-5 -137l19 -8q71 -30 103 -71.5t32 -95.5q0 -30 -12 -58t-33 -50.5t-50 -38.5t-63 -23v-32q0 -25 3.5 -47.5t8.5 -27.5q-24 -10 -35 -10q-8 0 -11 4q-2 4 -4 20.5t-2 38.5v5l1 43
q-8 -1 -13 -1h-13q-41 0 -77.5 5.5t-54.5 14.5q-11 5 -17.5 13.5t-6.5 16.5q0 14 23 29q12 8 27.5 11.5t32.5 3.5q19 0 46.5 -6t52.5 -17l1 163l-35 21q-23 14 -39.5 25t-29.5 23q-23 21 -35.5 48.5t-12.5 56.5q0 28 12 53t34 44t51 31t64 14l1 17v20q0 13 0.5 16.5
t2.5 10.5z" />
    <glyph glyph-name="percent" unicode="%" horiz-adv-x="537" 
d="M443 112q0 36 -17 61t-41 25q-23 0 -38.5 -20t-15.5 -51q0 -37 17 -62t42 -25q23 0 38 20.5t15 51.5zM206 420q-1 35 -18 59.5t-40 24.5t-39 -20.5t-16 -51.5q0 -38 18 -64t44 -26q22 0 37 21.5t15 53.5zM517 133q0 -30 -11.5 -56.5t-31 -46t-46 -31t-56.5 -11.5
q-52 0 -84 32t-32 84q0 29 12 55t31.5 46t45.5 32t55 12q51 0 84 -33t33 -83zM543 598l-4 -4l-6 -9q-13 -15 -22.5 -26t-15.5 -19q-32 -39 -89 -117t-135 -187l-75 -105t-49 -70.5t-30 -47.5t-19 -35q-5 -12 -5 -19q0 -5 1 -6l-25.5 -7.5t-15.5 -2.5q-18 0 -18 14q0 6 5 16
t10.5 19.5t11.5 19.5q11 18 29 45t40.5 59t48 68t52.5 73l128 173q14 19 24 32.5t18 23t17 18t21 17.5l8 6l-2 2q-25 -16 -53.5 -23t-66.5 -7q-14 0 -24.5 0.5t-19.5 3t-18 6t-21 9.5l-1 -2q9 -7 13 -10.5t8 -8.5q8 -11 13.5 -28.5t5.5 -34.5q0 -29 -12 -55.5t-32.5 -46.5
t-47 -32t-55.5 -12q-25 0 -46 9t-36.5 25t-24 37.5t-8.5 47.5q0 30 11.5 56.5t31.5 46.5t46 31.5t56 11.5q11 0 18.5 -1t21.5 -5q18 -1 39 -1h50q36 0 62 1t53 4q18 2 29.5 5t25.5 9q16 8 24 17q3 3 12 16h43z" />
    <glyph glyph-name="ampersand" unicode="&#x26;" horiz-adv-x="667" 
d="M268 397q20 17 27 23t16 16q19 22 19 49q0 23 -14 37t-36 14q-21 0 -34 -14t-13 -36q0 -16 7.5 -35t27.5 -54zM350 88q-8 8 -13 14t-10.5 12t-11 13t-12.5 17q-12 15 -26.5 35t-31.5 44q-8 12 -13.5 20t-9.5 15l-8 14t-9 16q-13 -11 -19.5 -17.5t-14.5 -15.5
q-31 -35 -31 -79q0 -24 9.5 -44t26 -34.5t39.5 -23t50 -8.5q25 0 44.5 5.5t40.5 16.5zM455 386q13 -1 20 -1h21q38 0 72.5 1.5t61.5 3.5q14 1 21.5 2.5t19.5 4.5q-8 -20 -12.5 -28t-14.5 -15q-6 -6 -14 -10t-16 -7q-8 -2 -15.5 -2.5t-22.5 -2.5l-11 -1q-3 -11 -5 -19.5
t-4 -15.5t-4.5 -13.5t-5.5 -15.5q-12 -32 -31.5 -68t-44.5 -73q76 -82 156 -82q14 0 25 2t31 9l-25 -41q-14 -8 -22.5 -10.5t-24.5 -6.5q-46 -11 -82 -11q-49 0 -86 20q-23 13 -51 42q-10 -7 -17.5 -11.5t-14 -8.5t-13.5 -7t-16 -7q-31 -14 -64 -20.5t-64 -6.5
q-40 0 -73 10.5t-57 30t-37 46t-13 58.5q0 55 42 103l17.5 17.5t20.5 18.5q10 8 18 14.5t16.5 13t19 13.5t24.5 17q-30 50 -41.5 78.5t-11.5 51.5q0 28 12.5 52t34 41.5t51 27.5t64.5 10q53 0 84.5 -23.5t31.5 -62.5q0 -46 -41 -90l-13.5 -13.5t-14.5 -11.5q-8 -6 -15.5 -11
l-28.5 -19q10 -17 18 -29l15 -22.5t13.5 -20.5t15.5 -22q7 -11 14.5 -20.5t16.5 -21t20.5 -26t27.5 -33.5q23 28 38.5 73t20.5 93h-24h-3q-9 0 -15.5 -0.5t-17.5 -2.5z" />
    <glyph glyph-name="quotesingle" unicode="'" horiz-adv-x="216" 
d="M-7 349q5 6 7.5 9.5t6.5 9.5q10 19 21 42q14 29 24.5 55.5t22.5 66.5l9 29q2 8 4 13t4 8q7 17 24 22q18 5 61 5q20 0 27.5 -4.5t7.5 -16.5q0 -18 -30 -66q-36 -59 -61 -92.5t-49 -55.5q-15 -14 -30.5 -19t-48.5 -6z" />
    <glyph glyph-name="parenleft" unicode="(" horiz-adv-x="259" 
d="M232 -161q-18 -7 -47 -7q-56 0 -85 35q-30 35 -46 109.5t-16 177.5q0 56 5 112.5t14 108.5t21 95t26 72q10 20 24 35.5t29 23.5q19 10 51 10q13 0 24.5 -1.5t25.5 -4.5l-13 -37q-13 4 -24 4q-12 0 -21.5 -5t-20.5 -17q-15 -16 -26.5 -41.5t-21.5 -65.5
q-17 -69 -25.5 -139.5t-8.5 -141.5q0 -292 118 -292q20 0 32 6z" />
    <glyph glyph-name="parenright" unicode=")" horiz-adv-x="259" 
d="M25 602q18 7 47 7q56 0 85 -35q30 -35 46.5 -109t16.5 -178q0 -56 -5 -112.5t-14 -108t-21 -95t-26 -72.5q-10 -20 -24.5 -35t-28.5 -23q-22 -11 -52 -11q-13 0 -24.5 1.5t-25.5 4.5l13 37q8 -2 12.5 -2.5t11.5 -0.5q12 0 21.5 4.5t20.5 16.5q15 16 26.5 41.5t21.5 65.5
q17 69 25.5 139.5t8.5 142.5q0 291 -118 291q-20 0 -32 -6z" />
    <glyph glyph-name="asterisk" unicode="*" horiz-adv-x="352" 
d="M280 616q-1 -1 -1 -1.5t-1 -1.5q0 -1 -2 -3q-1 -2 -2.5 -5.5t-5.5 -10.5l-30 -58q-6 -12 -9 -15q-2 -4 -4.5 -7.5t-5.5 -7.5t-5 -6.5t-7 -7.5l1 -2q20 16 59 23l25 5q31 6 45 16q-9 -42 -29.5 -61t-58.5 -19q-19 0 -36 7l-1 -2q4 -2 5 -2q9 -6 33 -30l23 -23
q7 -7 14 -13.5t12 -10.5q2 -2 4.5 -3.5t7.5 -3.5q-17 -10 -29 -14t-23 -4q-24 0 -47 34q-8 13 -15.5 25.5t-9.5 19.5q-2 4 -2 7t-2 9h-2q1 -5 1 -10q0 -8 -2 -20.5t-7 -24.5l-7 -20q-8 -22 -8 -36q0 -7 2 -10q-8 -2 -13 -2h-13q-21 0 -28.5 3t-7.5 14q0 4 2 10q4 15 12.5 34
t16.5 32q5 8 13 16.5t17 16.5l-2 2l-4 -3q-11 -8 -16.5 -11t-13.5 -5q-20 -6 -42 -10t-51 -6l19 62q20 2 30.5 2h30.5q15 0 22 -0.5t21 -2.5l7 -2v3q-22 8 -41 27t-41 54l38 54l13 -23l10 -16l13 -20l7 -12l14 -25q4 -8 5.5 -11.5t3.5 -9.5h2q-1 5 -1.5 8t-0.5 7
q0 30 32 103z" />
    <glyph glyph-name="plus" unicode="+" horiz-adv-x="426" 
d="M264 409q-3 -4 -4 -10q-2 -7 -4 -21l-4 -44t-3 -37l-2 -65l90 2q26 1 36.5 1.5t27.5 2.5q11 2 15 3t12 5q-21 -44 -43 -56q-16 -9 -45 -13t-80 -4h-16l-1 -51v-15q0 -23 1.5 -45.5t5.5 -40.5q3 -13 9 -21q-17 -5 -31 -7.5t-23 -2.5q-13 0 -17 9t-6 37.5t-2 79.5v20.5
t1 17.5v20l-21 -1h-27h-25h-3q-29 0 -55.5 -2t-37.5 -5l30 60q11 3 34.5 5t55.5 2h12t11 -1h28l1 28q1 11 3 49q1 19 1.5 31.5t1.5 22t1.5 17.5t2.5 20z" />
    <glyph glyph-name="comma" unicode="," horiz-adv-x="213" 
d="M12 -111l6 3l4 2q8 5 20 14.5t20 17.5q19 19 19 45q0 5 -2 13q-4 10 -10 17q0 1 -12 12l-8 9q-9 11 -13.5 18.5t-4.5 17.5q0 14 11 31q14 21 36 33.5t47 12.5q15 0 27.5 -7t22.5 -18.5t15.5 -27t5.5 -32.5q0 -25 -14.5 -52.5t-40.5 -55t-62.5 -54t-81.5 -49.5z" />
    <glyph glyph-name="hyphen" unicode="-" horiz-adv-x="333" 
d="M43 245q5 1 9 1t7 1h24l78 1h60q44 0 66.5 3t34.5 11q-12 -49 -45 -71q-6 -4 -13 -6.5t-17.5 -4t-26 -2t-38.5 -0.5h-52q-19 0 -45 -0.5t-46 -2.5q-8 -1 -12.5 -1.5t-12.5 -2.5z" />
    <glyph glyph-name="hyphen" unicode="&#xad;" horiz-adv-x="333" 
d="M43 245q5 1 9 1t7 1h24l78 1h60q44 0 66.5 3t34.5 11q-12 -49 -45 -71q-6 -4 -13 -6.5t-17.5 -4t-26 -2t-38.5 -0.5h-52q-19 0 -45 -0.5t-46 -2.5q-8 -1 -12.5 -1.5t-12.5 -2.5z" />
    <glyph glyph-name="period" unicode="." horiz-adv-x="213" 
d="M183 75q0 -32 -22.5 -54.5t-54.5 -22.5t-54 22.5t-22 54.5t22 54t54 22t54.5 -22t22.5 -54z" />
    <glyph glyph-name="slash" unicode="/" horiz-adv-x="352" 
d="M363 608q-15 -23 -40 -77t-63 -147q-24 -58 -41.5 -101t-31 -76t-24 -59t-20.5 -51.5t-20 -52.5t-23 -61q-22 -60 -31 -89.5t-9 -43.5q0 -4 1 -8q-26 -8 -45 -8q-16 0 -16 15q0 14 15 53q8 21 20.5 54t27.5 72t31 80t30 77q22 56 42.5 107.5t41 100t40.5 95.5t42 94
l12 26h61z" />
    <glyph glyph-name="zero" unicode="0" horiz-adv-x="426" 
d="M288 304q0 101 -24 159.5t-60 58.5q-32 0 -49.5 -56t-17.5 -158q0 -57 6 -102.5t17 -78t26.5 -50t34.5 -17.5t30 14q17 21 27 75.5t10 132.5v22zM403 336q0 -93 -23.5 -167t-69.5 -125q-24 -26 -57 -40.5t-69 -14.5q-80 0 -120.5 67.5t-40.5 201.5q0 94 20.5 160.5
t64.5 112.5q28 30 61 45t69 15q80 0 122.5 -65.5t42.5 -189.5z" />
    <glyph glyph-name="one" unicode="1" horiz-adv-x="426" 
d="M367 -2l-6 1l-20 1l-42 1q-9 0 -31.5 0.5t-61.5 0.5h-23q-22 0 -37 -0.5t-27.5 -1.5t-25 -2.5t-29.5 -3.5l14 41h11q21 0 32.5 3t19.5 10q10 8 11 24q2 10 2.5 24.5t1.5 35.5l2 107l2 71l2 72l2 79v16v17q0 24 -27 24q-41 0 -80 -11l12 41l25 4q28 4 47.5 7.5t34.5 6.5
t27 6t26 6q18 4 30 6.5t23 5.5t21.5 6t25.5 8v-9q-11 -7 -19 -21q-15 -25 -20 -61q-2 -17 -4 -37.5t-3 -42.5l-5 -160q0 -17 -0.5 -38.5t-1 -43.5t-0.5 -41.5v-32.5q0 -40 0.5 -54t2.5 -18q2 -5 14 -5h30h7h28t19 1h7z" />
    <glyph glyph-name="two" unicode="2" horiz-adv-x="426" 
d="M423 129l-5 -14q-8 -23 -13.5 -37.5t-10 -26.5t-9 -23t-11.5 -26l-14 -1q-32 -2 -68 -3t-75 -1h-49.5t-67.5 1q-21 0 -34 0.5t-23.5 0.5t-20 0.5t-22.5 1.5l12 15q8 10 15 18.5t12 16.5q3 4 13 17.5t26 36.5l57 83l14 21t17 26.5t17.5 29t15.5 27.5q23 40 34.5 74
t11.5 58q0 38 -24 62t-62 24q-16 0 -31 -5.5t-26 -14.5l-79 -13q41 54 94 84t110 30q60 0 96.5 -34t36.5 -90q0 -19 -5.5 -40t-15.5 -41q-12 -24 -30.5 -56t-35.5 -56l-89 -129q-5 -8 -10 -15t-10 -12q-9 -12 -14 -18t-15 -17q4 0 6 0.5t4 0.5q14 1 51 3l113 4q50 2 69 8
q16 7 24 30h21z" />
    <glyph glyph-name="three" unicode="3" horiz-adv-x="426" 
d="M48 44q9 -1 14 -1h11q82 0 129.5 33t47.5 90q0 23 -10 44t-27.5 37.5t-39.5 26.5t-46 10h-4l13 30q45 30 71 66t26 65q0 31 -20.5 49.5t-55.5 18.5q-14 0 -24.5 -2.5t-24.5 -10.5l-72 -11q36 48 90 76t109 28q49 0 79.5 -28t30.5 -73q0 -18 -6.5 -37t-18.5 -35
q-10 -13 -24.5 -27.5t-27.5 -24.5q-9 -7 -16.5 -11.5t-22.5 -12.5v-1q5 1 7.5 1h5.5q28 0 52 -11.5t42 -31.5t28 -47t10 -58q0 -40 -18 -78.5t-50 -67.5q-35 -32 -81 -46t-113 -14h-24.5t-20 1t-19 2.5t-22.5 3.5z" />
    <glyph glyph-name="four" unicode="4" horiz-adv-x="426" 
d="M245 490q-5 -8 -8 -14t-5 -11q-9 -17 -24 -43.5t-36 -61.5q-33 -54 -48 -78l-33 -52q5 1 8.5 1h4.5q6 1 14 1h19h41l35 -1h12l2 81q0 7 0.5 16t1.5 21q2 20 3.5 35.5t3.5 28.5q3 18 6 35.5t8 41.5h-5zM347 598l-3.5 -14t-2 -12t-1.5 -14t-2 -21q-3 -38 -5 -68.5t-3 -69.5
l-3 -169l22 1q16 1 32.5 3t22.5 6q8 4 12 15h12q-2 -14 -9.5 -30.5t-17.5 -29.5q-16 -20 -32.5 -30t-43.5 -15v-50q0 -13 0.5 -20.5t0.5 -10.5q0 -15 3 -33q2 -13 5 -21t9 -19l-36 -8q-34 -8 -51 -8q-21 0 -29 10q-5 5 -6 12t-1 30v22.5t1 27.5l2 65q-17 -1 -27 -1h-22
q-15 0 -32 0.5t-37 0.5l-118 1q4 8 6.5 13.5t4.5 9.5q6 11 14.5 26.5t19.5 33.5q34 56 81.5 128t104.5 153q10 15 17.5 25.5t14.5 19.5t14 18.5t17 22.5h66z" />
    <glyph glyph-name="five" unicode="5" horiz-adv-x="426" 
d="M43 41l14 1q61 5 97 17.5t59 38.5q17 17 25 39.5t8 46.5q0 47 -36 83q-12 12 -29 22t-37 17.5t-41 11.5t-40 4h-6l46 263q16 -1 28 -1.5t24.5 -0.5t27.5 -0.5t36 -0.5l90 -1h7q44 0 60.5 5t21.5 22h15q-8 -33 -16 -51t-23 -33t-35 -23q-18 -8 -39.5 -10t-65.5 -2
q-29 0 -47 0.5t-38 1.5l-7 1l-16 -83h9q25 0 61 -9t63 -22q51 -24 80 -68t29 -98q0 -76 -58 -140q-39 -43 -94 -62t-142 -19q-16 0 -24.5 0.5t-24.5 2.5z" />
    <glyph glyph-name="six" unicode="6" horiz-adv-x="426" 
d="M141 266l-1.5 -18t-0.5 -14q0 -80 23.5 -127.5t62.5 -47.5q30 0 48 27.5t18 72.5q0 56 -25 91t-63 35q-31 0 -62 -19zM387 540q-7 1 -11 1h-8q-39 0 -76.5 -17t-69.5 -49q-50 -52 -72 -119q-5 -17 -8 -30.5t-6 -38.5q51 71 134 71q30 0 55 -11.5t43.5 -32.5t28.5 -50
t10 -63q0 -44 -16 -82t-44.5 -66.5t-66.5 -45t-81 -16.5q-84 0 -130.5 59.5t-46.5 165.5q0 85 23.5 154t67.5 118t105.5 75.5t138.5 26.5q14 0 23 -1t24 -3z" />
    <glyph glyph-name="seven" unicode="7" horiz-adv-x="426" 
d="M-11 2q15 2 23 4.5t14 7.5q11 8 24.5 23t25.5 32q4 5 8.5 13.5t11.5 19.5q26 45 44 75.5t31 53t22.5 40t20.5 36.5l45 82q2 3 8.5 13.5t17.5 28.5q8 13 14.5 23.5t11.5 18.5q4 5 7.5 9t9.5 10v1q-7 -3 -11 -3.5t-17 -2.5q-13 -1 -22 -2t-18 -1.5t-19 -0.5h-24h-116
q-23 0 -36 -8q-8 -5 -10.5 -11t-4.5 -20h-17l1 17q1 17 2 30.5t2 26t1.5 25t1.5 27.5l1 19q3 -5 7 -8t12 -4.5t21.5 -2t36.5 -0.5l113 -1h22h43.5t44 0.5t40.5 1.5t32 2q10 1 16.5 2t17.5 3l-86 -159q-16 -30 -40.5 -74t-52 -92t-55 -95.5t-49.5 -84.5q-14 -23 -22.5 -35
t-18.5 -23q-12 -12 -23 -17q-16 -8 -34 -11t-56 -3h-22v14z" />
    <glyph glyph-name="eight" unicode="8" horiz-adv-x="426" 
d="M191 251q-11 -11 -17 -18t-12 -15q-35 -47 -35 -82q0 -33 22.5 -55.5t56.5 -22.5q35 0 58 21.5t23 53.5q0 42 -59 89l-22 17q-1 0 -11 8zM239 361q35 34 49 58.5t14 47.5q0 27 -21.5 46.5t-51.5 19.5q-32 0 -53.5 -19.5t-21.5 -48.5q0 -21 10 -37q5 -9 17.5 -22t25.5 -22
l21 -15l7 -5zM273 333q37 -20 71 -54q29 -28 41.5 -56t12.5 -61q0 -36 -16.5 -67t-45.5 -53.5t-68.5 -35t-85.5 -12.5q-71 0 -113.5 34.5t-42.5 92.5q0 49 36 92t99 66q-113 58 -113 150q0 36 14.5 66.5t41 52t62.5 34t79 12.5q68 0 108 -31t40 -82q0 -49 -42 -94
q-7 -7 -12 -11.5t-11 -9t-14.5 -10t-21.5 -13.5q-7 -4 -10 -5.5z" />
    <glyph glyph-name="nine" unicode="9" horiz-adv-x="426" 
d="M288 315q1 12 1.5 18.5t0.5 14.5q0 79 -23.5 127t-62.5 48q-30 0 -48 -27.5t-18 -73.5q0 -56 25 -91t63 -35q31 0 62 19zM42 41q7 -1 11 -1h8q43 0 82 19t70 53t52 80.5t28 101.5q-25 -35 -59 -53t-75 -18q-30 0 -55 11.5t-43.5 32.5t-28.5 49.5t-10 63.5q0 44 16 82
t44.5 66.5t66 45t81.5 16.5q84 0 130.5 -59.5t46.5 -165.5q0 -85 -23.5 -154t-67.5 -118t-106 -75.5t-138 -26.5q-14 0 -23 1t-24 3z" />
    <glyph glyph-name="colon" unicode=":" horiz-adv-x="213" 
d="M184 74q0 -32 -22.5 -54t-54.5 -22t-54 22t-22 54t22 54.5t54 22.5t54.5 -22.5t22.5 -54.5zM188 310q0 -32 -22 -54.5t-54 -22.5t-54.5 22.5t-22.5 54.5t22.5 54t54.5 22t54 -22t22 -54z" />
    <glyph glyph-name="semicolon" unicode=";" horiz-adv-x="213" 
d="M191 310q0 -32 -22.5 -54.5t-54.5 -22.5t-54 22.5t-22 54.5t22 54t54 22t54.5 -22t22.5 -54zM13 -111l10 5q8 5 20 14.5t20 17.5q18 20 18 45q0 5 -2 13q-1 5 -3.5 9t-5.5 8l-12 12l-9 9q-10 10 -13.5 18t-3.5 18q0 15 10 31q14 21 36 33.5t47 12.5q15 0 28 -7
t22.5 -18.5t15.5 -27t6 -32.5q0 -25 -14.5 -52.5t-40.5 -55t-63 -54t-82 -49.5z" />
    <glyph glyph-name="semicolon" unicode="&#x37e;" horiz-adv-x="213" 
d="M191 310q0 -32 -22.5 -54.5t-54.5 -22.5t-54 22.5t-22 54.5t22 54t54 22t54.5 -22t22.5 -54zM13 -111l10 5q8 5 20 14.5t20 17.5q18 20 18 45q0 5 -2 13q-1 5 -3.5 9t-5.5 8l-12 12l-9 9q-10 10 -13.5 18t-3.5 18q0 15 10 31q14 21 36 33.5t47 12.5q15 0 28 -7
t22.5 -18.5t15.5 -27t6 -32.5q0 -25 -14.5 -52.5t-40.5 -55t-63 -54t-82 -49.5z" />
    <glyph glyph-name="less" unicode="&#x3c;" horiz-adv-x="287" 
d="M250 57q-15 16 -26.5 28.5t-23 23t-24.5 20t-30 20.5q-19 13 -35 22t-31 16t-30 11.5t-32 7.5l1 10q29 6 60.5 19.5t69.5 35.5q38 21 64 41t48 43l8 -5q-14 -38 -20.5 -78t-6.5 -93q0 -40 3.5 -66.5t12.5 -50.5z" />
    <glyph glyph-name="equal" unicode="=" horiz-adv-x="426" 
d="M42 158q2 1 3 1t2 1q8 2 30 2.5t74 0.5h29h45.5t29.5 -1l52 -2h8h26q28 0 40 1t21 3q12 4 18 7q-6 -25 -30 -44q-14 -12 -30 -17q-8 -3 -19 -4t-32 -1h-29l-56 1h-94h-10q-49 0 -71.5 -1t-31.5 -4zM45 289q3 1 6 1q8 2 30 2.5t74 0.5h29q27 0 45.5 -0.5t28.5 -0.5l52 -1
h8h26q29 0 41 1t20 3q14 3 18 7q-6 -24 -29 -44q-7 -6 -15 -10.5t-15 -6.5q-9 -3 -20 -4t-32 -1h-29l-55 1h-94h-10q-50 0 -72 -1t-31 -4z" />
    <glyph glyph-name="greater" unicode="&#x3e;" horiz-adv-x="287" 
d="M38 355q14 -17 25.5 -29t23 -22.5t24.5 -20t30 -21.5q38 -25 65.5 -37.5t62.5 -19.5l-1 -9q-28 -7 -60 -20t-70 -35q-37 -21 -63.5 -41t-48.5 -43l-8 5q14 37 20.5 77.5t6.5 92.5q0 41 -3.5 67t-11.5 51z" />
    <glyph glyph-name="question" unicode="?" horiz-adv-x="352" 
d="M230 73q0 -32 -22.5 -54t-54.5 -22t-54 22t-22 54t22 54.5t54 22.5t54.5 -22.5t22.5 -54.5zM111 163q-4 13 -6 21.5t-3 15.5t-1.5 13t-0.5 14q0 15 4 30.5t12 26.5q5 8 14 15q8 6 16 10.5t31 14.5l49 21q31 13 42.5 23t11.5 24q0 12 -7 19q-5 5 -21.5 9.5t-49.5 9.5
l-46 7q-10 2 -17.5 2.5t-13.5 2.5q-46 7 -70 27q-26 21 -26 62q0 17 4 35.5t14 44.5l4 -1v-3q0 -17 33.5 -30.5t93.5 -21.5l36 -5q53 -7 77 -25q38 -29 38 -100q0 -40 -9.5 -74t-29.5 -59q-12 -15 -28 -27q-11 -8 -20.5 -13.5t-35.5 -17.5l-48 -22q-31 -14 -31 -39v-7z" />
    <glyph glyph-name="at" unicode="@" horiz-adv-x="742" 
d="M403 110q-2 11 -3 19.5t-2 16t-1 15.5v19q0 36 4 74t12 70q-14 2 -20 2h-12q-38 0 -57.5 -39t-19.5 -114q0 -51 11 -79t31 -28q12 0 27 12t30 32zM653 -11q-16 -38 -34 -58q-19 -21 -50 -39t-68.5 -31t-80 -20.5t-83.5 -7.5q-71 0 -128.5 22t-98 63t-62.5 99.5t-22 131.5
q0 164 112 271q56 53 129 81.5t151 28.5q67 0 122 -20t94.5 -56t61 -86.5t21.5 -111.5q0 -55 -16.5 -104.5t-44.5 -86.5t-65 -58.5t-78 -21.5q-43 0 -70 27t-29 72q-9 -19 -23.5 -34.5t-32 -27t-36.5 -17.5t-38 -6q-81 0 -81 126q0 81 30.5 145t82.5 95q26 16 59.5 22.5
t86.5 6.5q19 0 33.5 -0.5t41.5 -1.5q-4 -4 -5 -6t-3 -4q-14 -20 -22 -68t-8 -105q0 -70 19.5 -111t52.5 -41q17 0 31.5 12t25.5 32t17 47.5t6 58.5q0 57 -20 105.5t-55.5 84.5t-83.5 56t-104 20q-61 0 -112 -22t-88.5 -61.5t-58.5 -93.5t-21 -118q0 -63 18.5 -113.5
t53.5 -86t84 -54.5t111 -19q37 0 78 7t79 19t69 27.5t48 32.5z" />
    <glyph glyph-name="A" unicode="A" horiz-adv-x="556" 
d="M326 271q-3 9 -5 14t-5 16l-19 66q-8 27 -13 45t-8 33q-2 9 -3.5 17.5t-3.5 27.5l-4 -1q-3 -17 -6 -29.5t-6 -23.5t-7 -23.5t-10 -28.5l-18 -53q-5 -17 -9.5 -28.5t-13.5 -31.5h131zM541 -2q-20 2 -35 2.5t-44 0.5q-37 0 -71 -1.5t-69 -3.5l-15 -1l15 45h26h5
q20 0 25.5 1.5t5.5 7.5q0 3 -1 9.5t-3 11.5l-40 144h-168l-54 -140q-4 -11 -6 -16t-2 -8q0 -9 13 -9h13l39 2q8 1 13.5 0.5t15.5 1.5l-15 -47q-8 0 -13 0.5t-12.5 1t-18.5 0.5h-30q-17 0 -32 -0.5t-27 -0.5q-26 0 -38.5 -0.5t-32.5 -2.5l13 39h1q5 0 11 3q6 4 12 15
q3 6 10 21t23.5 53.5t46.5 108t79 184.5l76 177h79l54 -167l75 -223q20 -61 33.5 -99t18.5 -53q3 -9 7 -11q3 -5 9 -6t20 -2z" />
    <glyph glyph-name="B" unicode="B" horiz-adv-x="556" 
d="M242 324q33 2 51 4t33 10q24 13 37 36.5t13 52.5q0 100 -147 100h-4l-4 -204zM217 78q0 -13 4 -16q5 -4 23 -7t37 -3q55 0 85.5 27t30.5 75q0 25 -13 47t-35.5 37.5t-53.5 24.5t-68 9h-7zM31 35q5 -1 9 -1q15 0 27 4t18 10q2 4 4 8.5t4 12.5q2 10 2.5 18.5t1.5 33.5
l6 372v28v13.5t-1 5.5q-2 2 -5.5 3t-16.5 1q-20 0 -40.5 -2.5t-38.5 -6.5l15 41q23 3 36.5 4.5t34.5 3.5q30 2 72 3.5t91 1.5q20 0 36.5 -0.5t27.5 -1.5q73 -4 115 -24q29 -14 46.5 -40.5t17.5 -55.5q0 -26 -12 -49.5t-34 -43t-52.5 -34t-67.5 -21.5l1 -4h17q40 0 73 -9.5
t56 -27t36 -42t13 -54.5q0 -33 -14.5 -64.5t-40.5 -56.5q-35 -34 -81 -49.5t-107 -15.5h-9h-24l-20 1l-38 1h-54q-23 0 -44 -0.5t-35 -1.5l-38 -2z" />
    <glyph glyph-name="C" unicode="C" horiz-adv-x="574" 
d="M593 197l-8 -16q-13 -25 -22.5 -49.5t-22.5 -57.5l-21 -55q-32 -14 -81.5 -22t-101.5 -8q-75 0 -129 16.5t-95 51.5q-45 38 -68 92t-23 120q0 67 24.5 128t69.5 106q47 45 108.5 66.5t149.5 21.5q17 0 36.5 -1t48.5 -3l35 -2h22q37 0 41 14h6q-3 -14 -4 -22.5t-3 -24.5
q-3 -26 -5 -57t-2 -51v-13t1 -17h-40q2 6 2.5 9.5t0.5 11.5q0 16 -4 26t-15 21q-20 19 -60.5 31t-85.5 12q-44 0 -80 -16t-61.5 -46t-39 -72t-13.5 -94q0 -50 15 -92.5t41.5 -74t63 -49t79.5 -17.5q77 0 128 35.5t65 97.5h48z" />
    <glyph glyph-name="D" unicode="D" horiz-adv-x="685" 
d="M222 90v-4q0 -11 5 -14q8 -6 32.5 -9.5t53.5 -3.5q91 0 142 42q36 29 55.5 74.5t19.5 101.5q0 60 -21.5 112t-59.5 84q-59 50 -176 50q-7 0 -15 -0.5t-17 -0.5h-11zM31 35q5 1 10 1q17 1 25.5 3.5t15.5 10.5q5 5 7.5 12t4.5 21q1 8 2 15t1.5 18.5t1.5 30t1 49.5l6 333v1
q0 8 -5.5 10.5t-19.5 2.5q-18 0 -36 -1.5t-40 -4.5l19 40q13 2 22 3t19 2t22 1.5t31 1.5q40 2 68 3t48 2t36 1h32q45 0 80.5 -2.5t64 -8t51 -14t43.5 -21.5q57 -35 88 -93.5t31 -130.5q0 -65 -23.5 -124.5t-68.5 -105.5q-48 -50 -109.5 -73t-146.5 -23h-11.5h-13.5
t-20.5 0.5t-32.5 1.5l-37 2q-15 1 -22.5 1h-14.5q-6 0 -14.5 -0.5t-19.5 -0.5q-21 -1 -35 -1t-25.5 -0.5l-23 -1t-27.5 -1.5z" />
    <glyph glyph-name="E" unicode="E" horiz-adv-x="537" 
d="M523 143q-3 -8 -6 -12q-5 -9 -13 -27.5t-20 -44.5l-27 -60q-16 -3 -32 -4.5t-37 -1.5q-11 0 -40.5 1t-68.5 2l-86 2q-7 1 -16 1h-20h-19h-39.5t-27.5 -1t-23.5 -2t-27.5 -2l13 40q21 1 29 2t14 6q20 11 21 58l7 412l-1 21q0 5 -2.5 6.5t-11.5 1.5h-33q-35 0 -54 -7l16 39
q9 2 14.5 3t16.5 2q20 2 44 3t59 1l223 2q31 0 53.5 2t33.5 5q6 2 9 8h6q-2 -11 -3 -18.5t-2 -21.5q-2 -26 -3 -52.5t-1 -41.5v-19h-37q2 8 2 12v9q0 25 -10 32q-11 8 -39 11q-20 2 -53.5 3.5t-64.5 1.5h-41l-2 -186l38 1q20 1 38 1t34 1q32 2 45 2.5t19 2.5q17 7 17 33
q0 3 -1 6h35q-2 -14 -2.5 -21t-1.5 -17q-1 -23 -3 -65q0 -16 -0.5 -28.5t-0.5 -21.5v-9.5t1 -13.5h-37q2 9 2.5 14t0.5 13q0 11 -2 16.5t-7 9.5q-17 16 -121 16h-10l-46 -1l-2 -180v-1q0 -9 7 -12q3 -2 14 -4q17 -2 44.5 -2.5t51.5 -0.5q82 0 106 14q14 8 22 21.5t16 39.5
h43z" />
    <glyph glyph-name="F" unicode="F" 
d="M298 -2h-5h-21l-29 2q-23 2 -38.5 1.5t-32.5 -0.5q-33 0 -63.5 -1t-53.5 -3q-11 -1 -19 -1.5t-22 -2.5l14 41h7q30 0 44 14q7 8 9.5 22t2.5 45l5 412v6q0 7 -4.5 8.5t-24.5 1.5q-29 0 -43 -1t-28 -5l11 37q8 3 13.5 4t13.5 2q22 2 50.5 3t66.5 1l249 1q21 0 39 1.5
t24 3.5q7 3 10 9h6q-2 -15 -2.5 -24t-2.5 -25q-2 -23 -3 -47.5t-1 -35.5v-8.5t1 -10.5h-36q2 8 2 12v9q0 21 -11 29q-8 6 -21 9q-6 2 -12 2.5t-13 1.5q-13 1 -29 2t-32 1.5t-31 1t-25 0.5h-44l-3 -187l47 -1q6 0 16.5 0.5t24.5 0.5q25 1 42 1t25 1q10 1 18.5 2.5t13.5 4.5
q7 4 12 13t5 18v6h32q-1 -7 -1.5 -12.5t-0.5 -8.5q-1 -12 -3 -68q-1 -22 -1.5 -36.5t-0.5 -22.5v-13.5t2 -19.5h-38q2 13 3 18.5t1 12.5q0 24 -13 32q-5 3 -13 5t-22 3q-26 2 -53.5 3t-54.5 1h-41l-4 -217q0 -13 16 -13h4q1 1 35 1h20.5t26.5 2z" />
    <glyph glyph-name="G" unicode="G" horiz-adv-x="630" 
d="M615 216q-2 0 -4 0.5t-4 0.5q-18 0 -30 -10q-8 -8 -11 -20q-2 -8 -3 -17t-2 -38l-2 -112q-40 -13 -96.5 -21t-109.5 -8t-104 9q-41 7 -71 19t-56 32q-48 37 -73.5 92t-25.5 124q0 74 25.5 134t72.5 102.5t113.5 65.5t147.5 23q11 0 31 -0.5t51 -1.5l39 -1h13
q26 0 38.5 2.5t16.5 9.5h6q-5 -24 -8.5 -63t-3.5 -83v-19t2 -19h-42q2 8 2.5 13t0.5 10q0 28 -19 45q-21 18 -60 30t-79 12q-48 0 -87.5 -17t-67 -47.5t-43 -74t-15.5 -96.5q0 -51 15.5 -93.5t44 -73t68 -47.5t87.5 -17q21 0 34 1.5t35 7.5l1 122q0 12 -5.5 16t-20.5 4
q-16 0 -35 -1t-32 -3l17 47l18 -1q34 -2 57 -2h43q56 0 89.5 2t59.5 7z" />
    <glyph glyph-name="H" unicode="H" horiz-adv-x="741" 
d="M709 -1l-20 1q-20 1 -33.5 1.5t-23.5 1t-19 0.5h-20q-94 0 -152 -9l14 42h13q28 0 39 15t12 53l3 164h-305l-4 -217q0 -8 2 -9q2 -2 6 -2h15h27.5t34.5 2l-15 -44q-13 1 -22.5 2t-19.5 1.5t-21.5 0.5h-28.5q-32 0 -57.5 -0.5t-46.5 -1.5t-39 -2.5t-35 -4.5l13 44
q4 0 6.5 -0.5t4.5 -0.5q26 0 34 8q11 9 14 26q2 10 2.5 21t1.5 34l8 405v1q0 6 -3 8t-14 2h-17q-13 0 -22.5 -0.5t-14.5 -1.5q-2 0 -4 -0.5t-7 -1.5l16 45h24l21 1h106q45 0 87 3q12 1 17.5 1.5t16.5 2.5l-15 -43h-13q-31 0 -41.5 -11t-11.5 -45l-4 -157h306l4 198
q0 10 -16 10h-14l-37 -1l-16 -2l17 43h7h30l34 -1h46q16 0 33.5 0.5t54.5 2.5q13 1 21 1.5t15 1t13.5 1t15.5 1.5l-13 -44q-8 1 -11.5 1h-8.5q-24 0 -34 -9q-4 -4 -6.5 -8.5t-4 -13t-2.5 -23t-1 -37.5l-7 -403q0 -8 4 -10.5t20 -2.5h12q17 0 25 0.5t22 2.5z" />
    <glyph glyph-name="I" unicode="I" horiz-adv-x="315" 
d="M284 -1h-4l-18 1l-37 1q-12 0 -26 0.5t-29 0.5q-20 0 -39.5 -0.5t-39.5 -1.5q-12 0 -21.5 -0.5t-17.5 -1t-16.5 -1.5t-20.5 -2l12 41h5q32 0 44.5 12t13.5 42l1 45l8 393q0 8 -3.5 10t-15.5 2q-11 0 -20 -0.5t-32 -2.5l-10 -1l13 42q5 1 8 1t5 1q4 0 12 0.5t22 0.5l49 1
h40q6 0 17.5 0.5t28.5 0.5q16 0 27 0.5t20.5 1.5t19.5 2t24 3l-14 -43h-14q-17 0 -23.5 -1t-12.5 -5q-10 -7 -13 -22.5t-4 -54.5l-8 -406v-5q0 -9 2.5 -11t15.5 -2q16 0 32.5 1.5t35.5 3.5z" />
    <glyph glyph-name="J" unicode="J" horiz-adv-x="315" 
d="M11 -127q20 6 33 15.5t23 24.5q8 12 13 26t8 34.5t5 49t3 70.5l10 436v2q0 6 -1 8q-4 2 -17 2q-14 0 -27 -1t-38 -4l15 44l12 1l28 1h38l46 1l60 1l57 4q11 1 15 1t12 2l-17 -44h-12q-15 0 -22.5 -2t-12.5 -8q-7 -8 -9.5 -25t-3.5 -64l-10 -396v-20.5t-1 -17.5
q-2 -30 -11.5 -54.5t-26.5 -45.5q-28 -35 -76.5 -59.5t-111.5 -36.5z" />
    <glyph glyph-name="K" unicode="K" horiz-adv-x="574" 
d="M588 -3q-13 2 -20 2.5t-29 0.5h-9l-95 -1q-21 0 -36 -1t-41 -4l15 42h7h13q10 0 13 1t3 3q0 3 -3 6l-190 246l-3 3l-2 2t-3 1l1 -13q1 -13 1.5 -21t0.5 -13.5t-0.5 -9.5t-0.5 -10v-26l-4 -154v-1q0 -11 15 -11q2 0 10 0.5t17 0.5q13 1 21 1t12 1h5t8 1l-16 -45h-10
q-19 0 -47 1.5t-54 1.5q-22 0 -42.5 -0.5t-41.5 -1.5q-24 -2 -37.5 -2.5t-35.5 -3.5l15 43h14q27 0 37 11.5t11 43.5l11 435v1q0 9 -4.5 11.5t-21.5 2.5q-11 0 -24 -1.5t-32 -3.5l15 42q7 1 23 2t36 1l62 1q35 1 54 1.5t23 0.5q19 1 32.5 2t36.5 4l-11 -43h-11
q-26 0 -34.5 -2t-13.5 -7q-6 -7 -8.5 -18t-3.5 -32l-2 -88l-1 -26l-2 -47q-1 -14 -1 -18t-2 -7q2 1 3.5 1.5t6.5 5.5l203 219q8 8 8 11q0 5 -15 5q-21 0 -44 -4l12 43h25h44q31 0 50.5 0.5t29.5 0.5q17 1 26.5 2t26.5 3l-15 -42q-18 -1 -28 -5q-2 -2 -5 -3t-5 -3
q-8 -6 -11 -9l-11 -11l-41 -43l-51 -52l-47 -47q-14 -14 -23 -22.5t-13 -11.5q-7 -5 -7 -6q-4 -2 -4 -3q-1 0 -5 -2q3 -2 5.5 -3.5t3.5 -3.5q4 -3 15 -16t28 -33l71 -87q20 -24 38 -44.5t34 -38.5q18 -20 27.5 -31.5t11.5 -13.5q8 -10 13 -14.5t11 -7.5q10 -5 20 -5h4z" />
    <glyph glyph-name="L" unicode="L" horiz-adv-x="463" 
d="M480 160q-3 -8 -4.5 -12.5t-3.5 -9.5t-4.5 -11.5t-6.5 -16.5l-19 -47l-14 -34q-5 -11 -7 -17t-4 -9q0 -1 -3 -5q-6 -2 -12 -2.5t-14 -1.5t-20.5 -1h-30.5h-52.5t-50.5 2l-41 2q-13 1 -28 1h-32h-41q-20 0 -33.5 -0.5t-37.5 -2.5l12 39h6q29 0 42 14q7 8 8 22q2 15 3.5 39
t1.5 41l7 354q1 4 1 12q0 17 -2 21t-12 4h-3l-32 -3l-25 -1l-9 -1l16 43q4 1 10 1q7 1 23.5 1.5t30.5 0.5l49 1h49q14 0 28.5 1t28.5 2q22 1 33 2t28 4l-16 -44q-6 0 -9 0.5t-6 0.5q-21 0 -34 -7q-14 -6 -18 -18q-3 -7 -4 -15.5t-2 -28.5l-8 -395v-1q0 -7 3 -10t8 -3
q11 -2 33.5 -3t41.5 -1q41 0 62 4.5t35 15.5q25 20 35 73h44z" />
    <glyph glyph-name="M" unicode="M" horiz-adv-x="852" 
d="M822 -1q-16 0 -21 1q-5 0 -19.5 0.5t-38.5 0.5h-41q-8 0 -22 -0.5t-34 -1.5q-19 -1 -31 -1.5t-21.5 -1t-18.5 -1t-21 -1.5l16 42h12q15 0 25 3.5t16 12.5t8.5 24t2.5 38v156v33.5t1 33.5q2 39 3.5 69.5t6.5 63.5l2 16h-6q-4 -13 -7 -20.5t-8 -21.5t-10.5 -27.5
t-11.5 -27.5q-5 -11 -10 -21.5t-11 -22.5l-13.5 -27t-17.5 -34l-57 -108l-53 -98l-43 -81h-21l-1.5 4.5t-2.5 4.5l-38 78l-45 93q-19 39 -35 73.5t-31 71.5q-10 23 -19 46t-18 47q-8 22 -11.5 32.5t-8.5 27.5l-6 -1l1 -8q4 -29 4.5 -64t0.5 -63q0 -11 -0.5 -25t-0.5 -32
l-3 -188v-28q0 -17 4 -22t21 -5q5 0 17.5 0.5t28.5 2.5q4 0 9.5 0.5t13.5 1.5l-17 -46h-6h-5t-8 1l-31 1h-28l-73 -2q-16 0 -26 -0.5t-18.5 -1t-16.5 -1.5t-19 -2l17 42h5q29 0 40 16t14 62l25 395v6q0 27 -31 27q-17 0 -34 -2t-35 -5l18 41q8 2 12.5 3t11.5 2q3 0 8.5 0.5
t13.5 0.5q21 1 34.5 1.5t20.5 0.5l51 1l29 2q8 1 11.5 1h4.5q3 0 5 1q1 -5 2 -7.5l3 -7.5q10 -23 24.5 -56.5t28.5 -62.5l56 -119q4 -6 12.5 -25.5t23.5 -52.5q20 -43 28 -63.5t10 -34.5h1q5 16 9 26t13 30q10 22 17 36l16 32l24 47q18 35 32.5 62.5t29 55.5t31 60t38.5 77
q3 -1 6 -1h15l102 2q14 0 24 0.5t19 1t18.5 1t21.5 2.5l-16 -43q-5 1 -11 1q-35 0 -47.5 -11.5t-12.5 -43.5v-4l5 -419q0 -22 3 -26q2 -3 8 -4t24 -1q12 0 22.5 1t27.5 3z" />
    <glyph glyph-name="N" unicode="N" horiz-adv-x="722" 
d="M703 547h-8q-14 0 -25.5 -3.5t-16.5 -8.5q-3 -3 -5.5 -9.5t-4.5 -12.5q-1 -8 -2 -24t-2 -31l-8 -300v-15v-30v-41.5t0.5 -26.5t1.5 -19.5t2 -20.5q3 -26 10 -32h-5h-14h-29q-7 8 -11 12.5t-15 15.5l-38 38l-52 53l-82 86l-92 97l-63 69q-46 50 -50 56q-4 5 -9.5 12
t-19.5 27l-3 -1q2 -7 2.5 -11t1.5 -14q1 -5 1.5 -9.5t0.5 -8.5q1 -6 1.5 -18.5t1 -27.5t1 -31t0.5 -31l1 -224q0 -14 4 -18.5t15 -4.5h3l42 1q14 0 23.5 0.5t26.5 2.5l-19 -48q-6 1 -10.5 1.5t-7.5 0.5q-5 0 -17.5 0.5t-32.5 0.5l-69 1h-12h-33t-23.5 -1l-21 -2t-24.5 -3
l14 40h11q22 0 35 10q10 7 13 21q2 8 3 19.5t1 23.5l9 396l-7 7l-13.5 12t-10.5 6q-17 9 -38 9q-19 0 -36 -4l16 41q10 1 15 3q10 1 33 3q11 1 18.5 1h12.5l37 2q23 2 34 2t26 4q6 -9 11 -15t10.5 -12t12.5 -14t19 -21q10 -11 24.5 -26.5t33.5 -35.5q29 -32 50 -55t35 -38
l83 -89q16 -18 26 -28.5t16 -17.5t10.5 -12.5t10.5 -12.5q5 -5 8.5 -10t7.5 -10q6 -8 9.5 -14t10.5 -17l2 1q-2 12 -3 19t-2 16q-2 13 -3 48q-1 22 -1 35.5t-1 18.5l-2 227q0 8 -4 11t-18 3q-13 0 -30.5 -1t-49.5 -4l14 47h45h83q27 0 43.5 0.5t28.5 1t22 1.5t24 2z" />
    <glyph glyph-name="O" unicode="O" horiz-adv-x="667" 
d="M511 276q0 50 -14.5 94.5t-40 78t-59 53t-71.5 19.5q-37 0 -68 -16t-53.5 -44t-35.5 -66.5t-13 -84.5q0 -53 14 -98.5t39 -79t58.5 -52.5t72.5 -19q37 0 68 16.5t54 45t36 68t13 85.5zM645 307q0 -67 -25 -125t-68.5 -100.5t-102.5 -67t-127 -24.5q-67 0 -122 20.5
t-94.5 58t-61 90t-21.5 115.5q0 68 25 126.5t68.5 101t103.5 67t130 24.5q63 0 117 -22t93.5 -60t62 -90.5t22.5 -113.5z" />
    <glyph glyph-name="P" unicode="P" 
d="M217 300q12 -2 18.5 -2.5t18.5 -0.5q22 0 36 2.5t26 8.5q24 13 38 37.5t14 55.5q0 60 -36 92t-102 32h-10zM299 -2l-19 1q-20 1 -33 1.5t-19 0.5q-8 0 -20 0.5t-29 0.5q-30 0 -50 -0.5t-37.5 -1t-35 -2t-41.5 -3.5l11 41q3 0 5 -0.5t4 -0.5q32 0 44 14t13 50l5 435v2
q0 5 -4.5 6.5t-16.5 1.5q-20 0 -42.5 -2t-40.5 -5l15 39q13 2 20 2.5t20 2.5q19 2 44 3.5t52 3t54 2t49 0.5q35 0 62 -2t48 -6.5t37 -11t30 -16.5q28 -20 42.5 -50t14.5 -67q0 -40 -15.5 -74.5t-43.5 -59.5t-66 -39t-83 -14q-14 0 -24 1t-33 3l-3 -192v-3q0 -12 3 -15.5
t14 -3.5h35h21.5t12.5 1h6t9 1z" />
    <glyph glyph-name="Q" unicode="Q" horiz-adv-x="667" 
d="M511 285q-2 49 -17 92.5t-39.5 75.5t-57 50.5t-68.5 18.5q-39 0 -71 -15.5t-54.5 -43t-35 -66.5t-12.5 -86q0 -54 13.5 -99.5t37.5 -79t57 -52t72 -18.5q47 0 82 19q43 23 68.5 74.5t25.5 116.5q0 8 -1 13zM420 14q13 -1 19.5 -1t13.5 -2t13.5 -3.5t15.5 -5.5t24 -10
t39 -16l31 -13q23 -10 38.5 -15t34.5 -9q31 -7 72 -7q24 0 39.5 2.5t31.5 9.5l-8 -22q-5 -8 -7 -12t-5 -7q-8 -9 -28 -23.5t-38 -25.5q-21 -12 -39.5 -17t-38.5 -5q-39 0 -87 21q-26 11 -60 29.5t-75 41.5l-54 30q-34 19 -59 29.5t-43 16.5l-9 3q-101 34 -159.5 102.5
t-58.5 175.5q0 65 25 122t69.5 99t104 66.5t127.5 24.5q63 0 117.5 -22t94 -60t62 -91t22.5 -114q0 -55 -17 -104t-47 -87t-71 -63.5t-90 -32.5v-5z" />
    <glyph glyph-name="R" unicode="R" horiz-adv-x="574" 
d="M226 295h17q24 0 37.5 2t27.5 7q30 11 45.5 35.5t15.5 59.5q0 56 -38 90t-101 34h-11l-4 -228h11zM585 -6q-38 -8 -91 -8q-29 0 -45 3.5t-29 13.5q-17 12 -33 38q-5 9 -10.5 18.5t-11.5 20.5q-10 18 -16.5 30.5t-12.5 24.5l-12.5 25t-15.5 33l-15 33q-2 5 -4.5 9t-7.5 14
q-7 -1 -12 -1.5t-10 -0.5h-12h-17h-15l-1 -199q0 -7 2.5 -8t13.5 -1q14 0 25.5 -0.5t27.5 1.5l11 1l-15 -43q-17 1 -30 1.5t-24 1t-22 0.5h-24q-16 0 -36.5 -0.5t-46.5 -1.5q-16 0 -26.5 -0.5t-18.5 -1.5t-16.5 -2t-19.5 -2l13 41q5 0 7.5 -0.5t6.5 -0.5q24 0 37 13
q9 10 10 25q1 5 1 10.5t1 12.5q1 8 1 13.5v9.5l4 410q0 9 -6 11.5t-28 2.5q-15 0 -30.5 -1.5t-34.5 -3.5l15 40q14 3 39.5 5t57 3.5t66.5 2.5t67 1q38 0 66.5 -2t51 -6.5t40 -12.5t32.5 -19q53 -38 53 -101q0 -53 -35 -102q-16 -22 -33 -35.5t-45 -26.5v-2q5 -3 7 -5t7 -8
q8 -8 13 -16t14 -22l43 -66q24 -38 46 -65.5t45 -49.5q23 -23 43 -23q3 0 5 1z" />
    <glyph glyph-name="S" unicode="S" horiz-adv-x="426" 
d="M354 418q2 8 2 12.5v12.5q0 14 -2 22t-7 17q-13 20 -41.5 32t-61.5 12q-42 0 -65 -17.5t-23 -49.5q0 -23 14 -39t47 -32l33 -16q13 -6 22.5 -11t17.5 -9q49 -26 76 -56q20 -23 31 -50t11 -57q0 -70 -55 -128q-35 -38 -80 -55t-108 -17q-40 0 -75 6t-70 17q1 11 1.5 26
l1 30t1 29.5t0.5 24.5v24t-2 32h42q-1 -8 -1.5 -12.5t-0.5 -9.5q0 -40 40 -66t101 -26q43 0 68.5 22t25.5 58q0 26 -17 46q-9 11 -23 21q-11 9 -20.5 15t-31.5 17l-30 16q-21 11 -34 18.5t-21 13t-14 10.5t-14 12q-43 41 -43 107q0 38 15.5 69.5t43.5 54t67.5 35t86.5 12.5
h44l43 -1h5q21 0 28.5 2.5t12.5 9.5h7q-5 -29 -7.5 -68.5t-2.5 -77.5q0 -8 0.5 -16t1.5 -22h-40z" />
    <glyph glyph-name="T" unicode="T" horiz-adv-x="556" 
d="M423 -1h-10h-16l-39 2h-49h-34t-40 -1q-17 -1 -29.5 -1.5t-24 -1t-23 -1.5t-27.5 -2l13 40q25 1 37 3.5t19 9.5q7 8 10 26q1 5 1.5 9t0.5 9t0.5 15.5t0.5 25.5l6 383h-58q-46 0 -65.5 -3t-30.5 -11q-9 -5 -13.5 -21t-4.5 -37v-9.5t1 -12.5h-43q5 37 7.5 73t2.5 84v25h6
l1 -2q5 -9 14 -10q5 -2 12.5 -3t18.5 -3q22 -3 40 -3l28 -1h349q14 0 32 2.5t27 5.5q7 1 14 11h5q-2 -13 -2.5 -20t-2.5 -21q-3 -32 -4.5 -62.5t-1.5 -48.5v-12t1 -17h-40q2 11 2.5 17t0.5 12q0 23 -4 35t-15 19q-12 7 -29 8q-8 1 -16.5 1.5t-19.5 0.5q-14 1 -24 1.5
t-15 0.5h-47l-8 -457q0 -10 2 -12q2 -3 7 -4t22 -1h19.5t16 0.5t16 1t19.5 1.5z" />
    <glyph glyph-name="U" unicode="U" horiz-adv-x="685" 
d="M679 546h-18q-17 0 -25.5 -4.5t-13.5 -16.5q-6 -15 -7 -45q-2 -29 -3 -123q0 -24 -0.5 -38t-0.5 -19l1 -64q0 -12 -0.5 -21.5t-0.5 -15.5q-3 -56 -21 -93q-14 -28 -39 -52t-57 -38q-61 -29 -167 -29q-172 0 -225 88q-11 18 -15.5 41t-4.5 59v8l7 337v7q0 14 -15 14h-12
q-22 0 -31.5 -1.5t-24.5 -3.5l17 43q9 2 14 2t14 1q13 1 30.5 1h29.5h43h37t31.5 1l31 2t35.5 3l-12 -42h-15q-28 0 -38.5 -12.5t-11.5 -47.5l-4 -173v-23v-56.5t1 -38.5q2 -39 13 -65q15 -36 51.5 -56t87.5 -20q46 0 79 16.5t47 47.5q5 11 8 25.5t5 36.5t3 45.5t2 46.5
l6 225v9q0 20 -5.5 27.5t-21.5 7.5h-11t-13 -1q-16 -1 -21.5 -1t-15.5 -2l12 43h14l36 1l66 1h33.5t29.5 1q13 0 23 0.5t18 1t17 1t21 2.5z" />
    <glyph glyph-name="V" unicode="V" horiz-adv-x="556" 
d="M561 548q-13 -2 -18.5 -7t-12.5 -21l-18 -42l-48 -108l-61 -135l-61 -131l-38 -80l-11 -24l-6 -13h-61l-3 12t-4 12l-9 24q-4 10 -12 33t-21 61q-22 63 -34.5 100.5t-17.5 51.5l-43 133l-32 97q-6 18 -11 24t-13 6h-4.5t-7.5 -1l14 39h5q2 1 7.5 1h13.5l50 2
q11 1 32.5 1.5t53.5 2.5q14 0 23 0.5t16.5 1t14 1.5t16.5 2l-16 -44h-21q-27 0 -36 -3t-9 -14q0 -7 6 -28l70 -222q17 -52 24.5 -90t9.5 -68h3q4 17 6.5 26.5t7.5 24.5q8 23 15.5 43.5t19.5 50.5l91 223q5 13 8.5 25t3.5 17q0 10 -19 10q-8 0 -23.5 -1t-51.5 -3l19 45
q18 -1 27.5 -1h18.5h32t51 1q16 0 26 0.5t18 1t15.5 1t18.5 2.5z" />
    <glyph glyph-name="W" unicode="W" horiz-adv-x="815" 
d="M829 553q-8 -1 -11.5 -4t-7.5 -11l-27 -64q-8 -20 -21.5 -51.5t-33.5 -76.5q-27 -63 -46 -106t-33.5 -76t-27.5 -60.5t-28 -60.5l-16 -34q-5 -12 -6.5 -15.5t-3.5 -8.5h-50q-1 2 -1 3t-1 2q0 2 -3 10l-5 15q-2 5 -9.5 26t-19.5 58q-20 59 -30.5 91.5t-12.5 40.5
q-2 6 -4.5 16.5t-6.5 24.5q-5 16 -7.5 27.5t-4.5 20.5t-3 17t-2 17h-2l-7.5 -30t-5.5 -21q-7 -17 -12 -34q-5 -13 -11.5 -28t-17 -38t-25.5 -57t-37 -84l-25 -57q-5 -10 -5 -12q-1 -1 -3 -7h-53q-1 4 -2 6.5t-1 4.5q-4 11 -4 13l-8 24q-11 32 -24.5 75.5t-28.5 91t-29 94
t-25 84.5l-31 108q-5 18 -9 28.5t-7 16.5t-6.5 7.5t-7.5 1.5q-3 0 -6 -0.5t-11 -3.5l14 40q5 1 8 1.5t6 0.5q10 2 31.5 2.5t53.5 2.5l47 2q12 0 21.5 0.5t17.5 1t17 1t21 1.5l-16 -44l-12 1h-19q-23 0 -29 -2q-3 -2 -3 -5t1 -5l42 -149l23 -85q8 -28 13 -49t10 -44
q2 -13 3.5 -23t2.5 -20t2 -20.5t1 -24.5h3q5 21 7.5 33t7.5 29q2 8 4 14t4 11l5 13l16 41l37 88l24 61l7 17l-26 87q-5 18 -12.5 24.5t-22.5 6.5q-6 0 -11 -0.5t-15 -2.5l15 43h7h31h53h20t37 1q21 0 34.5 1t18.5 1q8 0 19.5 1t27.5 2l-17 -44h-12q-34 0 -42.5 -1.5
t-8.5 -9.5q0 -2 1 -7t4 -15l69 -240q7 -23 12 -44.5t8 -38.5q3 -15 5 -28.5t4 -37.5h2q1 10 2.5 18t3.5 15.5t4.5 16.5t6.5 21q4 14 9 27t10.5 28t12.5 33.5t17 43.5l56 144q5 13 9 23t7 17q5 15 5 21q0 10 -14 10q-12 0 -31.5 -1.5t-48.5 -5.5l18 47q5 1 9 1h31l91 2l46 3
l24 2z" />
    <glyph glyph-name="X" unicode="X" horiz-adv-x="537" 
d="M522 -3q-5 1 -9.5 1t-6.5 1q-12 1 -38.5 1.5t-50.5 0.5q-18 0 -37 -0.5t-42 -1.5q-12 -1 -20.5 -1.5t-15.5 -1t-13 -1.5t-15 -2l16 43q33 1 43.5 2.5t10.5 6.5t-5 13l-40 71q-2 2 -5.5 9.5t-9.5 18.5q-8 17 -13 26t-7 11q-3 7 -6.5 14.5t-6.5 16.5l-2 6l-3 1
q-3 -8 -5 -12t-7 -13q-8 -15 -15.5 -26.5t-12.5 -19.5q-2 -3 -15 -21l-67 -90l-3 -4.5t-1 -3.5q0 -4 9 -4q8 0 17.5 0.5t23.5 1.5q5 1 14 1t20 1l-18 -44q-16 1 -25.5 1.5t-29.5 0.5q-18 0 -36.5 -0.5t-38.5 -1.5q-24 -1 -35.5 -1.5t-29.5 -3.5l15 41q2 -1 5 -1q15 0 29 17
l172 230l-140 244q-7 12 -12 15t-17 3h-8.5t-9.5 -2l9 40h15h19.5t30.5 1l113 3q10 0 26 1.5t29 3.5l-13 -41h-12l-30 -1q-11 0 -11 -5q0 -2 2 -5l48 -80q17 -28 26 -48.5t14 -37.5h2q5 14 16.5 33.5t25.5 38.5l71 95q1 1 1 3q0 3 -8 3q-7 0 -16 -0.5t-20 -1.5
q-5 0 -12.5 -0.5t-17.5 -0.5l14 42h30h32q18 0 34 0.5t31 0.5q17 1 29 1t35 2l-13 -36q-8 -1 -11.5 -1.5t-7.5 -2.5q-8 -4 -16.5 -12t-22.5 -28l-139 -184l148 -258q11 -18 21 -24.5t28 -6.5q6 0 11 1z" />
    <glyph glyph-name="Y" unicode="Y" horiz-adv-x="537" 
d="M410 -1h-4h-15l-38 1q-14 0 -28.5 1t-31.5 1q-51 0 -91.5 -2t-85.5 -7l13 43h11q17 0 27 2t17 8q8 8 11 20q2 9 3 21.5t2 45.5l3 138l-163 258q-7 13 -24 13q-2 0 -5 -0.5l-9 -1.5l14 38q3 0 5 0.5t4 0.5q4 1 7.5 1t8.5 1q2 0 8 0.5t17 0.5l78 2l48 2q18 1 30.5 1.5
t34.5 2.5l-11 -44q-52 0 -59 -3q-3 -2 -3 -5t3 -10l25 -39l17 -30l37 -66q8 -14 12 -25t11 -33l3 1q7 14 11 21.5t12 20.5q8 12 19.5 29t21.5 31l72 97q1 2 1 4q0 4 -8 4h-8.5t-12 -1t-19.5 -2t-30 -2l14 46h34h54t39 1t31 1.5t30 2.5l-13 -38q-12 -3 -21 -13l-190 -254
l-5 -229v-1q0 -8 3 -11q3 -2 9.5 -2h26.5h29.5t33.5 2z" />
    <glyph glyph-name="Z" unicode="Z" horiz-adv-x="556" 
d="M563 183l-5 -12q-6 -14 -10 -25t-7.5 -23t-8 -27t-10.5 -36t-8.5 -30t-7.5 -26q-11 -2 -18 -3t-27 -2q-56 -3 -96 -3h-33l-240 5h-54l-52 -1l19 19q3 4 6.5 7.5t7.5 8.5q9 11 18.5 23.5t23 31.5t32.5 46t46 67l73 106l72 106l31 45q23 34 34 46q1 2 10 11l-1 1
q-6 -2 -8 -2q-2 -1 -5.5 -1t-8.5 -1q-7 -1 -12 -1h-9h-62l-71 -1q-11 0 -26.5 -1t-23.5 -2q-22 -3 -34 -11q-14 -8 -22 -23.5t-8 -34.5v-7.5t1 -10.5h-39l2 10q0 4 0.5 13t1.5 25l3 54q1 9 1 19v21v15.5t-1 22.5h9q4 -9 16 -12.5t43 -4.5l59 -2h154h85q35 0 56.5 0.5t36.5 1
t26 2t26 4.5q-8 -11 -12 -15q-11 -14 -24.5 -32t-30.5 -43l-217 -321l-37 -50q-16 -22 -25 -34.5t-11 -15.5q-2 -2 -4 -4.5t-7 -7.5q8 2 13.5 2.5t9.5 1.5q11 2 30 2.5t36 0.5h7l87 -1h6q35 0 60.5 6t42.5 18.5t27 33.5t15 51h49z" />
    <glyph glyph-name="bracketleft" unicode="[" horiz-adv-x="259" 
d="M222 -176l-61 2q-19 1 -35 1.5t-30 0.5t-22 -0.5t-20 -2.5q2 5 2.5 7.5t1.5 10.5q3 21 3 48l13 650v9q0 24 -1.5 38t-4.5 22q22 -2 46.5 -3t47.5 -1q30 0 89 3l-19 -47l-99 1l-13 -694q17 0 29.5 0.5t24.5 0.5t27 0.5t37 0.5z" />
    <glyph glyph-name="backslash" unicode="\" horiz-adv-x="296" 
d="M12 78q4 3 6 5.5t5 6.5q8 11 19 30t18 33l44 90l12 25l10 23q9 20 14.5 29t13.5 14q14 11 61 11h22h7q22 0 30.5 -3.5t8.5 -12.5q0 -7 -17 -31q-10 -14 -21 -28.5t-25 -31.5q-36 -45 -58.5 -71.5t-42.5 -46.5q-24 -24 -40 -31q-24 -11 -52 -11h-9h-6z" />
    <glyph glyph-name="bracketright" unicode="]" horiz-adv-x="259" 
d="M83 610l61 -2q19 -1 35.5 -1.5t30.5 -0.5t21 0.5t20 2.5q-2 -5 -3 -8t-2 -10q-1 -11 -1.5 -23t-0.5 -25l-13 -650v-9q0 -46 5 -60q-21 2 -46.5 3t-47.5 1q-30 0 -88 -3l18 47l100 -1l13 694q-17 0 -29.5 -0.5t-24.5 -0.5t-27 -0.5t-37 -0.5z" />
    <glyph glyph-name="asciicircum" unicode="^" 
 />
    <glyph glyph-name="underscore" unicode="_" horiz-adv-x="852" 
d="M10 243h853l-22 -61h-852z" />
    <glyph glyph-name="grave" unicode="`" horiz-adv-x="0" 
d="M59 446q-8 -2 -12 -2.5t-12 -0.5q-22 0 -38 5.5t-30 16.5q-34 27 -69 75q-25 34 -25 49q0 11 11 15t37 4q17 0 33.5 -1t23.5 -3q7 -3 13 -10q4 -5 6 -9.5t8 -19.5l9 -24q13 -34 14 -38q7 -16 18 -37l6.5 -13t6.5 -7z" />
    <glyph glyph-name="a" unicode="a" horiz-adv-x="407" 
d="M231 88q-1 17 -1 26v19v16t1 19l1 14q-11 -4 -19 -7t-13 -5q-22 -8 -41 -16t-25 -11q-13 -7 -13 -23q0 -20 17.5 -34t40.5 -14q11 0 21 3t31 13zM237 72q-44 -81 -111 -81q-21 0 -39.5 8t-32.5 21.5t-22 31.5t-8 38q0 34 25 54q9 8 23.5 15.5t31.5 14.5q22 8 54 19t61 19
l10 3l2 32v18q0 17 -1.5 25.5t-5.5 14.5q-6 9 -20 15t-28 6q-10 0 -19.5 -2.5t-14.5 -6.5q-2 -2 -3 -5.5t-2 -10.5q-4 -6 -15 -11q-18 -8 -38 -13.5t-31 -5.5q-9 0 -15 4t-6 9q0 8 6 15t21 20q49 42 97 64t90 22q48 0 73 -23t25 -68v-15.5t-1 -18.5l-5 -92q0 -6 -0.5 -15.5
t-0.5 -22.5q0 -29 2.5 -43.5t7.5 -26.5q7 -14 18.5 -22.5t25.5 -8.5q9 0 16 2t21 8q-6 -20 -14 -29q-19 -19 -43.5 -30t-47.5 -11q-20 0 -38 9t-30 23q-8 10 -11 20.5t-5 30.5h-2z" />
    <glyph glyph-name="b" unicode="b" horiz-adv-x="519" 
d="M187 132v-23q0 -16 0.5 -21t2.5 -9q5 -11 25 -18.5t43 -7.5q26 0 48 10t37.5 27t24.5 41t9 53q0 31 -9.5 57t-26.5 45t-39.5 30t-49.5 11t-62 -13zM18 575q21 3 33 4.5t34 5.5q19 3 34.5 6t29.5 6t28.5 6.5t32.5 8.5q-3 -7 -4 -11t-3 -13q-2 -5 -2.5 -9t-1.5 -9
q-2 -18 -3 -45q-1 -11 -1 -28.5t-1 -41.5l-4 -114q14 12 21 17.5t17 11.5q23 14 50 22.5t52 8.5q35 0 65.5 -13.5t53 -37t35.5 -55.5t13 -69q0 -45 -18 -86.5t-51 -75.5q-20 -22 -44 -36q-27 -17 -64 -26.5t-75 -9.5q-48 0 -96 8.5t-84 23.5q1 8 1.5 14t0.5 12.5t0.5 15.5
t0.5 24l8 368v19q0 38 -6.5 51.5t-26.5 13.5h-14.5t-20.5 -2z" />
    <glyph glyph-name="c" unicode="c" horiz-adv-x="370" 
d="M372 112q-11 -32 -20 -49t-22 -30q-20 -20 -55.5 -32.5t-73.5 -12.5q-39 0 -71.5 13t-56 36.5t-36 56.5t-12.5 74q0 57 26.5 109t71.5 84q57 40 139 40q51 0 83 -13.5t32 -34.5q0 -14 -16 -32q-10 -10 -23 -15.5t-24 -5.5h-8t-8 2q-5 2 -15 7t-19 11l-10 7
q-8 5 -10.5 6.5t-6.5 3.5q-10 2 -15 2q-17 0 -31.5 -9.5t-25.5 -26t-17.5 -38.5t-6.5 -46q0 -64 33.5 -104t87.5 -40q53 0 110 37z" />
    <glyph glyph-name="d" unicode="d" horiz-adv-x="519" 
d="M325 320q-19 10 -36 14.5t-37 4.5q-50 0 -81.5 -35t-31.5 -90q0 -30 9 -56t25 -44.5t37.5 -29.5t46.5 -11q33 0 68 20q-2 31 -2 47v28v8zM517 16q-15 -5 -24.5 -6.5t-33.5 -5.5q-29 -5 -47 -7.5t-31 -4t-25 -3t-29 -2.5l2 32q1 18 2 26.5t3 24.5h-2q-24 -34 -64 -54.5
t-83 -20.5q-36 0 -66 13t-51.5 36t-33.5 55t-12 71q0 49 18 91t50.5 72.5t77 47.5t97.5 17q18 0 35.5 -2t26.5 -5l1 38v34q0 35 -1 50t-3 21q-7 15 -32 15q-8 0 -16.5 -1t-22.5 -4l11 38l16 2q32 4 66 9t69 12q18 3 27 5t24 7q-4 -8 -5 -12t-3 -13q-4 -18 -6 -37t-4 -39
q-3 -51 -4.5 -116.5t-2.5 -150.5l-1 -127q0 -24 1 -39t4 -23.5t9.5 -11t16.5 -2.5q8 0 21.5 2.5t39.5 7.5z" />
    <glyph glyph-name="e" unicode="e" horiz-adv-x="407" 
d="M289 266q-5 41 -19.5 59.5t-40.5 18.5q-33 0 -58 -22.5t-36 -61.5zM137 226v-4q0 -67 36.5 -106t99.5 -39q68 0 130 42q-9 -29 -14.5 -41.5t-13.5 -24.5q-20 -29 -64 -46t-98 -17q-88 0 -138 48.5t-50 132.5q0 48 18 90t48.5 74t71 50.5t86.5 18.5q66 0 105.5 -44
t45.5 -125z" />
    <glyph glyph-name="f" unicode="f" horiz-adv-x="296" 
d="M282 0h-28h-34t-21.5 0.5t-14.5 0.5h-12q-45 0 -87.5 -2t-67.5 -5l15 42h8q20 0 26.5 13.5t7.5 53.5l1 71q1 62 2.5 96t1.5 54v8h-7h-24.5t-23.5 -2l24 55l34 -1q3 33 8.5 54.5t16.5 44.5q28 57 81 91t116 34q34 0 54.5 -11t20.5 -30q0 -20 -19.5 -35t-45.5 -15
q-17 0 -36 11l-6 5q-15 10 -29 10q-16 0 -28 -14q-9 -12 -12 -27q-2 -14 -3.5 -36t-1.5 -46v-37l28 1q34 2 54 4t33 7q-10 -38 -33 -52.5t-71 -14.5h-12l-3 -277q0 -8 3 -10t13 -2q21 0 45 1.5t43 3.5z" />
    <glyph glyph-name="g" unicode="g" horiz-adv-x="481" 
d="M127 -26q-25 -11 -25 -37q0 -28 32 -45t86 -17q68 0 110 17t42 44q0 14 -14 19q-4 2 -7.5 3t-8.5 1q-9 1 -15 1.5t-14 1t-20 1t-33 0.5l-44 1q-64 2 -89 10zM153 260q0 -47 22.5 -75.5t57.5 -28.5t55 24t20 65q0 48 -22 77.5t-57 29.5t-55.5 -25t-20.5 -67zM390 327
q24 -20 24 -64q0 -35 -16 -64.5t-44 -51t-66.5 -34t-83.5 -12.5q-11 0 -19 0.5t-18 2.5q-11 -8 -18 -17.5t-7 -17.5q0 -26 67 -26h53h62q35 0 57.5 -5t39.5 -15q33 -19 33 -64q0 -32 -18.5 -57.5t-52.5 -43.5t-82.5 -27.5t-108.5 -9.5q-176 0 -176 76q0 55 95 88l1 2
q-28 3 -43.5 15t-15.5 30q0 20 25.5 41.5t70.5 37.5v3q-50 8 -78 38.5t-28 78.5q0 37 16.5 69.5t44.5 56.5t65.5 38t80.5 14q31 0 55.5 -7t47.5 -24q8 1 12.5 1h9.5h4h22h8q66 0 91 14q-7 -70 -73 -70q-9 0 -17 1t-19 4z" />
    <glyph glyph-name="h" unicode="h" horiz-adv-x="537" 
d="M532 -1l-19 1l-65 1h-17h-33.5t-43.5 -2q-21 -1 -31 -2t-26 -3l11 41q17 0 22.5 2t9.5 9q3 6 4.5 15t2.5 26q2 34 3 65.5t1 57.5q0 18 -0.5 30.5t-1.5 21.5t-3.5 16t-5.5 14q-17 32 -61 32q-21 0 -40.5 -4.5t-41.5 -13.5l-6 -258q0 -9 15 -9q8 0 16.5 0.5t19.5 1.5l24 2
l-14 -44h-3h-14l-33 1q-17 1 -28.5 1h-23.5q-43 0 -78 -2t-55 -5l14 40q3 -1 7 -1q12 0 19 2.5t11 11t5.5 23.5t1.5 40l7 319v27v19q0 41 -6 55t-24 14q-6 0 -12.5 -1t-23.5 -4l12 38l19 2q11 1 19.5 2.5t19 3.5t23.5 5t33 8q16 3 26.5 5.5t18 4.5t14.5 4.5t16 5.5
q-5 -12 -6.5 -19t-3.5 -21q-3 -22 -4 -45l-2 -46l-2 -93q-1 -20 -1 -30.5t-2 -28.5q48 37 83.5 51.5t75.5 14.5q57 0 86.5 -33t29.5 -96q0 -9 -0.5 -28.5t-1.5 -37.5l-7 -141v-14q0 -8 4.5 -10t18.5 -2q15 0 30 1t32 3z" />
    <glyph glyph-name="i" unicode="i" horiz-adv-x="278" 
d="M227 539q0 -26 -18.5 -44t-44.5 -18t-44 18t-18 44t18 44.5t44 18.5t44.5 -18.5t18.5 -44.5zM273 -1l-24 1q-19 1 -34.5 1.5t-27.5 0.5l-84 -2q-17 0 -27 -0.5t-17.5 -1t-14.5 -1.5t-17 -2l13 42h6q21 0 28.5 11.5t8.5 46.5l3 201v3q0 26 -4.5 36t-17.5 10h-6.5t-9.5 -1
q-6 -1 -10 -1.5t-6 -0.5q-2 -1 -4 -1t-4 -1l12 38q7 1 12 1.5t10.5 1.5t13 2.5t19.5 4.5l52 11q27 6 47.5 11.5t31.5 10.5q-5 -10 -6.5 -15.5t-3.5 -16.5t-3.5 -22.5t-2.5 -27.5t-2 -38t-1 -53l-3 -199q0 -9 20 -9h20l35 2l10 1z" />
    <glyph glyph-name="j" unicode="j" horiz-adv-x="278" 
d="M228 539q0 -26 -18.5 -44t-44.5 -18t-44 18t-18 44t18 44.5t44 18.5t44.5 -18.5t18.5 -44.5zM31 374q18 3 28.5 4.5t31.5 6.5q19 4 34.5 7t30 6.5t30.5 7.5t38 10q-4 -7 -5 -12q-2 -4 -3 -7.5t-2 -8.5t-1.5 -9.5t-0.5 -10.5t-0.5 -15t-0.5 -23l-2 -144q-1 -49 -3 -84.5
t-6 -62.5t-10.5 -48t-16.5 -42q-27 -56 -71.5 -88.5t-95.5 -32.5q-33 0 -52 10t-19 27q0 20 19 35t45 15q10 0 17.5 -2t18.5 -8l7 -3q7 -4 16 -4q11 0 17 6q8 8 9 28q2 21 2.5 52t1.5 90l2 222v4q0 24 -6.5 33t-24.5 9q-8 0 -15.5 -1t-22.5 -5z" />
    <glyph glyph-name="k" unicode="k" horiz-adv-x="481" 
d="M490 -1q-10 1 -17 2t-14.5 1.5t-17.5 0.5h-26h-37.5t-26.5 -1t-23 -2t-26 -2l-18 -2l14 38h8l14 1q6 0 6 2l-2 4l-129 168q-2 3 -6 3l1 -7q0 -23 0.5 -40t0.5 -30v-30l-1 -43v-1q0 -18 2 -19q2 -2 8 -2.5t24 -0.5h13.5t10.5 2l-13 -40l-14 1q-19 2 -33.5 2.5t-29.5 0.5
q-38 0 -74.5 -2.5t-62.5 -7.5l10 40h7q17 0 23 4q8 6 11.5 27t4.5 71l6 285v49q0 32 -1 43.5t-6 20.5q-5 7 -10.5 9.5t-18.5 2.5q-5 0 -12 -1t-15 -2l-10 -1l13 37l23 3q32 5 54.5 8.5t48.5 8.5q11 2 19 4t15.5 4t15.5 4.5t19 6.5q-5 -13 -7.5 -20.5t-4.5 -21.5
q-3 -20 -4.5 -39.5t-2.5 -47.5l-4 -162l-2 -50q-1 -44 -3 -56v-6q16 6 58 56l47 54q9 10 15 19t6 12q0 2 -6 2h-1l-39 -2l15 37l38 -1q20 -1 34 -1h23q29 0 52 1.5t56 6.5l-17 -40l-4 -1l-8 -1l-22 -2q-35 -3 -66 -36l-31 -32q-4 -5 -8.5 -10t-9.5 -10q-14 -13 -19.5 -17.5
t-16.5 -10.5q9 -5 14 -10q6 -5 15 -15q16 -17 24.5 -27t10.5 -12l60 -70q13 -15 21 -24.5t13 -15.5t9.5 -10.5l9.5 -9.5q17 -17 32 -17h5z" />
    <glyph glyph-name="l" unicode="l" horiz-adv-x="278" 
d="M274 -2l-17 1q-51 3 -102 3q-46 0 -80 -1.5t-51 -4.5l12 41h9q11 0 18 3t10.5 12.5t5 26.5t1.5 45l6 345v12v14.5t-1 15.5q0 9 -1 13t-3 9q-6 11 -21 11q-8 0 -18.5 -1t-24.5 -3l11 37l24 4q49 9 93 18q15 3 25.5 5t19 4.5t16.5 5t19 5.5q-6 -14 -8.5 -27t-5.5 -33
q-1 -15 -3 -38q-1 -21 -2.5 -60.5t-2.5 -96.5q-2 -73 -3 -115.5t-1 -54.5v-144q0 -8 4 -10t23 -2h23t28 2l10 1z" />
    <glyph glyph-name="m" unicode="m" horiz-adv-x="796" 
d="M796 -1q-18 1 -31 1.5t-24.5 1t-22.5 0.5h-24q-11 0 -25.5 -0.5t-32.5 -0.5q-15 0 -25.5 -0.5t-18.5 -1t-15 -1.5t-17 -2l10 41q24 1 33 13q5 5 6.5 16.5t2.5 34.5l3 99v9q0 32 -3 50.5t-11 31.5q-17 30 -61 30q-6 0 -14 -0.5t-16 -2.5q-14 -3 -23.5 -7t-25.5 -12
q1 -3 1 -5.5v-4.5q3 -24 3 -71q0 -25 -0.5 -51t-2.5 -66l-2 -49v-3q0 -8 2 -9.5t10 -1.5q5 0 22 1t34 3l-13 -43h-15q-18 0 -36 0.5t-37 0.5h-71h-18.5t-14 -0.5t-12.5 -1.5t-14 -2l12 39q15 2 20 3t9 5q3 4 4.5 12t2.5 28l3 67v49q0 49 -4.5 71.5t-17.5 36.5q-20 20 -54 20
q-33 0 -72 -17l-6 -264v-3q0 -5 17 -5q11 0 27.5 1t27.5 3l-14 -44q-7 0 -11.5 0.5t-8.5 0.5q-15 1 -33.5 1.5t-38.5 0.5h-31t-37 -1q-14 0 -22.5 -0.5t-16 -1t-14.5 -1t-16 -1.5l11 40h5q23 0 30.5 10t8.5 40l4 206v9q0 21 -5 30t-16 9q-9 0 -22 -2t-21 -5l13 40q7 1 12 2
t8 2q33 6 68 14t73 20l16 5l-20 -86l3 -1q16 14 24.5 21.5t22.5 15.5q56 34 116 34q42 0 69 -20t33 -58q12 15 31 29t40.5 24t44.5 16t44 6q58 0 88 -35q15 -19 22 -45.5t7 -74.5q0 -20 -0.5 -39.5t-1.5 -39.5l-5 -106v-5q0 -8 3.5 -10t20.5 -2h8q20 0 28.5 0.5t23.5 2.5z
" />
    <glyph glyph-name="n" unicode="n" horiz-adv-x="537" 
d="M533 -1l-28 1q-21 1 -37.5 1.5t-30.5 0.5t-34 -0.5t-46 -1.5q-11 0 -18.5 -0.5t-14 -1t-12.5 -1t-14 -1.5l12 41q21 0 29 8t9 31l1 26l3 91v9v12t-1 15q-1 25 -3.5 38t-9.5 25q-17 32 -69 32q-37 0 -69 -16l-5 -260v-1q0 -5 2.5 -6t12.5 -1h9.5t10.5 1l39 3l-14 -45h-8
q-2 0 -6 0.5t-10 0.5l-28 1h-27q-49 0 -90 -1.5t-65 -5.5l12 42h9h2q9 0 13.5 1.5t8.5 6.5q5 7 7.5 20.5t3.5 33.5l5 191v6q0 24 -7 34.5t-24 10.5q-6 0 -12.5 -1.5l-19.5 -4.5l9 38q9 1 15.5 2.5t13 2.5t14.5 3l20 5l34 8.5t24 5.5q19 5 30 8.5t30 9.5l-20 -90h3
q29 32 72.5 52t88.5 20q66 0 95 -42q7 -9 11.5 -19t7 -23.5t3.5 -31.5t1 -43v-25.5t-1 -29t-2 -38.5t-3 -55l-2 -33v-2q0 -11 1.5 -13.5t9.5 -2.5h27q14 0 21.5 0.5t10.5 0.5q2 1 5.5 1t8.5 1z" />
    <glyph glyph-name="o" unicode="o" horiz-adv-x="481" 
d="M336 179q0 33 -7.5 62t-21 50.5t-31.5 34t-39 12.5q-20 0 -36.5 -9t-28.5 -25.5t-18.5 -39t-6.5 -49.5q0 -33 7.5 -62t21 -50t32 -33.5t39.5 -12.5q39 0 64 34t25 88zM459 219q0 -48 -18.5 -89.5t-51.5 -72t-77.5 -48t-96.5 -17.5q-43 0 -78 13.5t-60 37.5t-39 58t-14 75
q0 47 19 88t51.5 71.5t76 48t93.5 17.5q42 0 77.5 -12.5t62 -36t41 -55.5t14.5 -71v-7z" />
    <glyph glyph-name="p" unicode="p" horiz-adv-x="519" 
d="M186 67q37 -15 74 -15q53 0 84 36t31 97q0 30 -9 55.5t-24.5 43.5t-37.5 28.5t-48 10.5q-33 0 -65 -20zM275 -167q-12 0 -21 0.5t-17 1t-16.5 0.5h-19.5t-21.5 -0.5t-21.5 -0.5q-41 -2 -69.5 -2t-59.5 -3l-20 -2l11 41q14 0 18.5 0.5t9.5 3.5q21 9 21 44v49l1 89l2 96
l3 128v10q0 31 -7 42.5t-26 11.5q-7 0 -12.5 -1t-16.5 -5l11 38q12 2 20 3.5t16.5 3.5t19.5 4.5t29 6.5q19 4 31 7t21.5 5t18.5 5l21 7l-19 -92l2 -1q22 25 40 39q23 17 52.5 27t58.5 10q34 0 63.5 -13t51.5 -35.5t34.5 -53.5t12.5 -66q0 -51 -19.5 -94.5t-53.5 -75.5
t-80 -50t-99 -18q-16 0 -27.5 0.5t-32.5 3.5l-1 -87v-2q0 -14 0.5 -20.5t2.5 -9.5t8 -4t20 -1t27.5 0.5t43.5 2.5z" />
    <glyph glyph-name="q" unicode="q" 
d="M318 327q-20 9 -34 12.5t-30 3.5q-51 0 -82 -36.5t-31 -93.5q0 -30 9 -56.5t25 -46.5t37.5 -31.5t45.5 -11.5q28 0 54 15zM491 -165h-15q-21 0 -39 1t-33 1q-17 0 -38 -0.5t-46 -1.5q-15 -1 -25.5 -1.5t-19.5 -1.5t-17.5 -2t-19.5 -2l13 40l11 1q26 2 37.5 10.5
t11.5 28.5v69q0 17 0.5 33t2.5 47q-19 -29 -55 -47.5t-75 -18.5q-34 0 -63 13.5t-50.5 37.5t-33.5 57t-12 72q0 97 70 164q38 36 85.5 52.5t113.5 16.5q15 0 30.5 -0.5t34.5 -2t44 -3.5t59 -5v-5l-1 -1l-3 -1q-10 -6 -16 -32q-4 -21 -6 -44q-2 -16 -2.5 -34.5t-1.5 -41.5
q-1 -20 -1.5 -34t-0.5 -22l-3 -238v-19q0 -23 0.5 -31.5t2.5 -11.5q1 -4 12 -4h1h24q7 1 13 1t25 2z" />
    <glyph glyph-name="r" unicode="r" horiz-adv-x="352" 
d="M291 -1q-15 1 -26 1.5t-21 0.5h-20.5h-23.5q-58 0 -106 -2t-68 -6l12 41q13 2 17.5 3t9.5 4q15 14 17 65l4 181v6q0 28 -6.5 38.5t-23.5 10.5q-6 0 -13 -1t-21 -5l12 37q18 3 28 5t29 6t38.5 8t39.5 9q17 4 24.5 6t20.5 7l-25 -111l3 -1q11 22 21.5 36.5t23.5 26.5
q18 17 40 26.5t43 9.5q22 0 35 -9t13 -24q0 -10 -5.5 -23.5t-15.5 -26.5q-19 -23 -44 -23q-7 0 -17 1.5t-17 4.5l-10 4q-9 3 -17 3q-18 0 -39 -21l-4 -235v-5q0 -8 11 -8h13t27 1q11 0 18 0.5t12.5 1t10 1t11.5 1.5z" />
    <glyph glyph-name="s" unicode="s" horiz-adv-x="352" 
d="M281 276q2 6 2.5 9t0.5 7q0 23 -18 35q-12 8 -33.5 14t-39.5 6q-23 0 -37.5 -9.5t-14.5 -26.5q0 -24 40 -41l65 -27q79 -32 79 -106q0 -33 -13.5 -60t-38.5 -46.5t-59 -30.5t-75 -11q-54 0 -108 20q1 5 1 8t1 5q1 10 1.5 28t0.5 41v18.5t-1 22.5h33q-1 -4 -1.5 -6.5
t-0.5 -4.5q0 -29 30.5 -48.5t74.5 -19.5q23 0 37.5 10.5t14.5 27.5q0 30 -48 50l-39 17q-31 14 -52 29q-20 14 -30.5 35t-10.5 46q0 29 13 54t35.5 43t53.5 28.5t67 10.5q6 0 13 -0.5t16 -1.5l29 -2h12q31 0 35 12h6q-2 -11 -2 -17.5t-2 -22.5q-2 -26 -3 -44.5t-1 -28.5
v-9.5t1 -13.5h-34z" />
    <glyph glyph-name="t" unicode="t" horiz-adv-x="333" 
d="M24 356q7 4 8 5q6 3 16.5 11t26.5 20q38 30 65 53q12 11 21 19t25 25h24l-13 -107l50 -1h5q62 0 96 10q-5 -13 -7 -18.5t-5 -10.5q-3 -7 -8 -12.5t-10 -10.5q-24 -19 -76 -19h-9.5t-16.5 1l-23 1l-2 -57q0 -11 -1 -21t-1 -21q0 -14 0.5 -30.5t1.5 -36.5q2 -20 4 -31.5
t7 -21.5q18 -37 70 -37q16 0 31 3q14 3 22.5 7t22.5 13q-7 -23 -11.5 -34.5t-12.5 -20.5q-17 -20 -51 -31.5t-76 -11.5q-36 0 -63.5 11t-42.5 32q-11 15 -15.5 36t-4.5 56v20.5t1 28.5l2 52l3 53l2 47h-61z" />
    <glyph glyph-name="u" unicode="u" horiz-adv-x="537" 
d="M23 378l25 4l64 10l31 6q20 4 32.5 6t19.5 4q1 1 12 4q-4 -10 -5.5 -15.5t-3.5 -14.5q-2 -14 -4 -32t-3 -35l-4 -85q-1 -11 -1 -22v-22q0 -36 3 -56.5t11 -31.5q21 -29 68 -29q20 0 38 5.5t38 18.5v38.5t0.5 29.5t1 31.5t1.5 45.5l2 63v7q0 20 -6.5 28.5t-21.5 8.5
q-24 0 -51 -7l13 42q14 1 24.5 2t20.5 2.5t22 3t29 4.5q18 3 32 5.5t25 4.5q15 3 24 5t26 7q-5 -10 -6.5 -15.5t-3.5 -15.5q-1 -6 -2 -11t-1 -10q-3 -25 -6 -65q-3 -39 -3 -59l-2 -114v-36q0 -17 1.5 -24.5t5.5 -12.5q6 -8 19 -8q7 0 17 1.5t18 3.5l26 6l-14 -43l-21 -3
q-49 -7 -84 -12.5t-69 -7.5l-18 -1l2 22q0 10 3 31q2 17 2.5 22t2.5 14h-1l-5 -6q-30 -36 -72.5 -58t-91.5 -22q-48 0 -79 27q-21 19 -29 43.5t-8 73.5v29.5t1 32.5l5 100v14q0 35 -30 35q-8 0 -13.5 -1t-15.5 -4z" />
    <glyph glyph-name="v" unicode="v" horiz-adv-x="407" 
d="M174 -18q-2 5 -3 8.5t-2 5.5t-3 8t-5 14l-123 328q-4 10 -14 10q-5 0 -9 -1l15 38q5 -1 8.5 -1h5.5h93q31 0 47 0.5t38 3.5l-17 -42q-8 0 -14.5 0.5t-13.5 0.5q-9 0 -11.5 -1t-2.5 -4v-3l29 -90q8 -23 11 -36t8 -33q3 -11 4.5 -19t2.5 -16t2 -17t2 -22h3q3 13 5 21t9 28
q6 19 10 30t7.5 19.5l7 17t8.5 20.5l27 65q4 9 6.5 17.5t2.5 11.5q0 6 -3.5 8t-14.5 2q-9 0 -16.5 -0.5t-21.5 -2.5l18 42q17 -1 26.5 -1h25.5h30t34 1q14 0 20.5 0.5t17.5 2.5l-15 -39h-3q-8 0 -11 -2q-5 -3 -15 -24l-133 -278l-30 -64l-2 -7h-41z" />
    <glyph glyph-name="w" unicode="w" horiz-adv-x="648" 
d="M649 355l-5 -1q-11 0 -15 -3.5t-9 -14.5l-166 -356h-41q-2 9 -3.5 13.5t-5.5 15.5l-11 33l-32 94l-16.5 49.5t-12.5 39.5q-3 10 -3.5 15t-2.5 14h-2q-3 -13 -4.5 -20t-5.5 -21t-8.5 -26.5t-11 -28.5t-15.5 -36.5t-22 -49.5l-24 -53q-5 -11 -7.5 -17.5t-3.5 -7.5
q-1 -2 -2 -5t-3 -8h-40l-6 19.5t-7 17.5l-123 329q-4 11 -15 11h-6l14 36q5 -1 8 -1h5q14 -1 34.5 -1.5t45.5 -0.5q15 0 27.5 0.5t23.5 0.5q15 1 23.5 1.5t22.5 2.5l-16 -41l-20 1h-13q-12 0 -12 -8q0 -3 0.5 -6.5t4.5 -14.5l19 -56q3 -10 7.5 -24.5t8.5 -30t8 -30.5t7 -27
q3 -13 5 -22.5t4 -25.5h2q5 24 12.5 47.5t13.5 40.5l17 46l17 46l8 20l-13 36q-3 10 -14 10h-6.5t-11.5 -2l16 38h10l30 -2q8 -1 22.5 -1h32.5h31.5t22 0.5t18.5 1t22 2.5l-17 -42h-13h-19q-10 0 -10 -5q0 -2 0.5 -4l1.5 -6l29 -90q2 -5 4 -14t7 -24q5 -19 7.5 -30t3.5 -14
q4 -17 6.5 -28t5.5 -32l1 1q3 11 4.5 17.5t3.5 12.5q3 12 8.5 28.5t13.5 38.5q4 11 6.5 18t4.5 12l39 96q3 9 3 13q0 10 -14 10q-9 0 -18.5 -1t-24.5 -3l16 44l12 -1q19 -2 36.5 -2h31.5q22 0 37 1t42 3z" />
    <glyph glyph-name="x" unicode="x" horiz-adv-x="407" 
d="M407 -1q-18 2 -29 2.5t-33 0.5q-28 0 -52 -0.5t-37 -1.5q-12 -1 -23 -2t-34 -4l15 37l14 1q8 1 9.5 1t1.5 2t-2 5l-12 19l-17 31q-8 14 -12.5 22.5t-6.5 12.5q-3 5 -4.5 9t-3.5 12h-1l-4 -6q-1 -2 -2.5 -4.5t-3.5 -5.5q-3 -5 -5 -7.5t-3 -4.5l-48 -70q-5 -7 -5 -10
q0 -2 6 -2h3l36 2h5t8 1l-18 -40q-22 1 -34.5 1h-23.5h-25.5t-23.5 -1l-31.5 -1.5t-26.5 -2.5l18 39q2 -1 5 -1q17 0 37 25l38 48q5 6 13.5 16.5t22.5 26.5l12.5 15t18.5 21l-91 147q-7 11 -18.5 17.5t-24.5 6.5q-5 0 -7 -0.5l-6 -1.5l14 38q6 -1 10 -1t7 -1
q13 -1 31.5 -1.5t44.5 -0.5h25.5t20.5 1q17 1 29.5 2t34.5 3l-14 -36l-23 -3q-9 -1 -9 -6q0 -2 1 -4l33 -55q5 -9 9.5 -18.5t6.5 -17.5h2q3 6 3 8l12 21q7 13 12 18l32 46q3 4 3 6t-5 2h-7l-30 -3l17 40l15 -1q14 -1 23.5 -1h18.5q25 0 51 1.5t50 3.5l-20 -37h-4
q-6 0 -9.5 -0.5t-7.5 -1.5q-7 -3 -17 -11t-18 -18l-90 -108l103 -161q16 -24 48 -24h7.5t10.5 1z" />
    <glyph glyph-name="y" unicode="y" horiz-adv-x="407" 
d="M36 393q11 -1 20.5 -1h26.5h44t39 1q19 1 29.5 1.5t29.5 2.5l-15 -41l-29 -1q-8 0 -10.5 -1t-2.5 -4q0 -1 2 -7l20 -69q4 -15 7.5 -25.5t6 -21t5 -22t5.5 -27.5q3 -14 4.5 -23t2.5 -16t2 -13.5t2 -15.5l3 1q2 9 3 14.5t5 19.5q5 14 7.5 23t4.5 15q3 10 21 60q7 18 9 23
l24 55q8 18 8 25t-12 7q-10 0 -20.5 -1t-20.5 -3l15 43q14 -2 21.5 -2h21.5h21h28.5t21 1t19 1.5t22.5 2.5l-15 -40h-7q-9 0 -13 -2.5t-9 -12.5l-151 -322l-38 -78q-16 -33 -25.5 -48t-21.5 -26q-17 -16 -43 -25t-51 -9q-29 0 -46 9t-17 25q0 21 20.5 37t48.5 16q2 0 6 -0.5
t9 -0.5l8 -1q5 -1 15 -1q15 0 25 8q6 4 10.5 12t12.5 28l20 46q-15 41 -25.5 71.5t-18.5 50.5q-18 50 -29 80t-15 41l-32 91q-4 14 -14 14q-3 0 -8 -1z" />
    <glyph glyph-name="z" unicode="z" horiz-adv-x="407" 
d="M407 137q-2 -5 -4 -11q-2 -3 -3.5 -9l-3.5 -14q-4 -15 -6.5 -24.5t-3.5 -13.5l-14 -59q-6 -2 -10 -2.5t-11 -1.5q-21 -2 -52.5 -3t-78.5 -1h-70t-50.5 0.5t-44.5 2t-50 3.5q8 8 13.5 14t11.5 13t12.5 17t17.5 25l57 85l56 84l24 35q8 11 12.5 17.5t6.5 9.5q7 8 12 14.5
t16 17.5l-1 1q-11 -3 -23.5 -4t-39.5 -2l-58 -1q-55 -1 -55 -58q0 -5 1 -9h-34q2 15 3.5 22.5t2.5 16.5q2 11 2.5 23.5t2.5 29.5q2 19 2 27.5v24.5h5q4 -11 19 -14t59 -3h152q19 0 36 0.5t33 0.5q18 1 27.5 1.5t25.5 2.5l-14 -20l-26 -37l-87 -133l-60 -90q-14 -20 -22 -30
t-21 -26l1 -2q10 2 11 2h10.5t17.5 1l21 1l48 1q26 1 40.5 5t24.5 14q17 19 20 56h39z" />
    <glyph glyph-name="braceleft" unicode="{" 
 />
    <glyph glyph-name="bar" unicode="|" horiz-adv-x="1" 
d="M1 718v-1000h-1v1000h1z" />
    <glyph glyph-name="braceright" unicode="}" 
 />
    <glyph glyph-name="asciitilde" unicode="~" 
 />
    <glyph glyph-name="Adieresis" unicode="&#xc4;" horiz-adv-x="556" 
d="M326 271q-3 9 -5 14t-5 16l-19 66q-8 27 -13 45t-8 33q-2 9 -3.5 17.5t-3.5 27.5l-4 -1q-3 -17 -6 -29.5t-6 -23.5t-7 -23.5t-10 -28.5l-18 -53q-5 -17 -9.5 -28.5t-13.5 -31.5h131zM245 683q0 -23 -16 -39.5t-39 -16.5t-39 16.5t-16 39.5t16 39t39 16t39 -16t16 -39z
M448 683q0 -23 -16 -39.5t-39 -16.5t-39 16.5t-16 39.5t16 39t39 16t39 -16t16 -39zM541 -2q-20 2 -35 2.5t-44 0.5q-37 0 -71 -1.5t-69 -3.5l-15 -1l15 45h26h5q20 0 25.5 1.5t5.5 7.5q0 3 -1 9.5t-3 11.5l-40 144h-168l-54 -140q-4 -11 -6 -16t-2 -8q0 -9 13 -9h13l39 2
q8 1 13.5 0.5t15.5 1.5l-15 -47q-8 0 -13 0.5t-12.5 1t-18.5 0.5h-30q-17 0 -32 -0.5t-27 -0.5q-26 0 -38.5 -0.5t-32.5 -2.5l13 39h1q5 0 11 3q6 4 12 15q3 6 10 21t23.5 53.5t46.5 108t79 184.5l76 177h79l54 -167l75 -223q20 -61 33.5 -99t18.5 -53q3 -9 7 -11q3 -5 9 -6
t20 -2z" />
    <glyph glyph-name="Aring" unicode="&#xc5;" horiz-adv-x="556" 
d="M326 271q-3 9 -5 14t-5 16l-19 66q-8 26 -12.5 41t-8.5 37q-3 15 -4 23t-3 22l-4 -1q-3 -17 -6 -29.5t-6 -23.5t-7 -23.5t-10 -28.5l-18 -53q-5 -17 -9.5 -28.5t-13.5 -31.5h131zM297 683q-18 0 -31 -13t-13 -31q0 -19 13 -31.5t31 -12.5t31 12.5t13 31.5q0 18 -13 31
t-31 13zM540 -2q-20 2 -32.5 2.5t-35.5 0.5q-6 0 -27.5 -0.5t-59.5 -0.5h-27t-18 -1t-15.5 -2t-17.5 -2l15 45h26h5q20 0 25.5 1.5t5.5 7.5q0 3 -1 9.5t-3 11.5l-40 144h-168l-54 -140q-4 -11 -6 -16t-2 -8q0 -9 13 -9h13q14 0 24 1t15 1q11 1 16 0.5t13 1.5l-15 -47
q-8 0 -13 0.5t-12.5 1t-18.5 0.5h-30q-17 0 -32 -0.5t-27 -0.5q-26 0 -38.5 -0.5t-32.5 -2.5l13 39h1q9 0 15.5 7t14.5 24l152 354l66 150q-36 22 -36 66q0 37 25.5 62t62.5 25q35 0 58.5 -24.5t23.5 -59.5q0 -23 -10 -41t-28 -28l46 -140l75 -223q20 -61 33.5 -99t18.5 -53
q3 -9 7 -11q3 -5 9 -6t20 -2z" />
    <glyph glyph-name="Ccedilla" unicode="&#xc7;" horiz-adv-x="574" 
d="M562 599q-3 -14 -4 -22.5t-3 -24.5q-3 -26 -5 -57t-2 -51v-13t1 -17h-40q2 6 2.5 9.5t0.5 11.5q0 16 -4 26t-15 21q-20 19 -60.5 31t-85.5 12q-44 0 -80 -16t-61.5 -46t-39 -72t-13.5 -94q0 -50 15 -92.5t41.5 -74t63 -49t79.5 -17.5q77 0 128 35.5t65 97.5h48l-8 -16
q-13 -25 -22.5 -49.5t-22.5 -57.5l-21 -55q-14 -6 -22.5 -8.5t-25.5 -6.5q-35 -8 -65.5 -11t-69.5 -4l-2 -4q-2 -2 -3 -4t-2 -3.5t-3 -3.5q5 2 8 2h9q33 0 55.5 -14.5t22.5 -35.5q0 -17 -14 -35.5t-37 -32.5q-24 -14 -52 -21t-69 -7q-103 0 -103 33q0 13 15 21.5t37 8.5
q9 0 20.5 -2t30.5 -7l15 -4q21 -6 37 -6q17 0 28.5 7t11.5 17t-17 15.5t-46 5.5q-8 0 -12.5 -0.5t-9.5 -2.5q5 8 7 12.5t6 9.5q8 11 16.5 23.5t20.5 28.5q-41 2 -73 9t-60 19q-72 32 -112 98.5t-40 152.5q0 67 24.5 128t69.5 106q47 45 108.5 66.5t149.5 21.5q17 0 36.5 -1
t48.5 -3l35 -2h22q37 0 41 14h6z" />
    <glyph glyph-name="Eacute" unicode="&#xc9;" horiz-adv-x="537" 
d="M206 628q5 3 7.5 5t6.5 5q8 5 21.5 17.5t28.5 25.5l18 16l13 13q9 9 17 12q15 5 82 5h38q17 0 22.5 -1t5.5 -6q0 -6 -23 -20q-26 -14 -55.5 -29t-50.5 -23q-29 -12 -52.5 -17t-47.5 -5h-14.5t-16.5 2zM523 143q-3 -8 -6 -12q-5 -9 -13 -27.5t-20 -44.5l-27 -60
q-16 -3 -32 -4.5t-37 -1.5q-11 0 -40.5 1t-68.5 2l-86 2q-7 1 -16 1h-20h-19h-39.5t-27.5 -1t-23.5 -2t-27.5 -2l13 40q21 1 29 2t14 6q20 11 21 58l7 412l-1 21q0 5 -2.5 6.5t-11.5 1.5h-33q-35 0 -54 -7l16 39q9 2 14.5 3t16.5 2q20 2 44 3t59 1l223 2q31 0 53.5 2t33.5 5
q6 2 9 8h6q-2 -11 -3 -18.5t-2 -21.5q-2 -26 -3 -52.5t-1 -41.5v-19h-37q2 8 2 12v9q0 25 -10 32q-11 8 -39 11q-20 2 -53.5 3.5t-64.5 1.5h-41l-2 -186l38 1q20 1 38 1t34 1q32 2 45 2.5t19 2.5q17 7 17 33q0 3 -1 6h35q-2 -14 -2.5 -21t-1.5 -17q-1 -23 -3 -65
q0 -16 -0.5 -28.5t-0.5 -21.5v-9.5t1 -13.5h-37q2 9 2.5 14t0.5 13q0 11 -2 16.5t-7 9.5q-17 16 -121 16h-10l-46 -1l-2 -180v-1q0 -9 7 -12q3 -2 14 -4q17 -2 44.5 -2.5t51.5 -0.5q82 0 106 14q14 8 22 21.5t16 39.5h43z" />
    <glyph glyph-name="Ntilde" unicode="&#xd1;" horiz-adv-x="722" 
d="M148 631q12 28 20.5 41.5t21.5 26.5q34 33 86 33q16 0 37.5 -2.5t60.5 -8.5l55 -8q34 -5 48 -7t25 -2q26 0 45 11q9 5 14.5 11.5t11.5 19.5l23 -6q-23 -56 -53.5 -80.5t-75.5 -24.5h-10.5t-12 1t-19.5 3t-33 5l-75 12q-23 4 -40.5 5.5t-31.5 1.5q-24 0 -43 -8
q-11 -5 -18 -11.5t-15 -21.5zM703 547h-8q-14 0 -25.5 -3.5t-16.5 -8.5q-3 -3 -5.5 -9.5t-4.5 -12.5q-1 -8 -2 -24t-2 -31l-8 -300v-15v-30v-41.5t0.5 -26.5t1.5 -19.5t2 -20.5q3 -26 10 -32h-5h-14h-29q-7 8 -11 12.5t-15 15.5l-38 38l-52 53l-82 86l-92 97l-63 69
q-46 50 -50 56q-4 5 -9.5 12t-19.5 27l-3 -1q2 -7 2.5 -11t1.5 -14q1 -5 1.5 -9.5t0.5 -8.5q1 -6 1.5 -18.5t1 -27.5t1 -31t0.5 -31l1 -224q0 -14 4 -18.5t15 -4.5h3l42 1q14 0 23.5 0.5t26.5 2.5l-19 -48q-6 1 -10.5 1.5t-7.5 0.5q-5 0 -17.5 0.5t-32.5 0.5l-69 1h-12h-33
t-23.5 -1l-21 -2t-24.5 -3l14 40h11q22 0 35 10q10 7 13 21q2 8 3 19.5t1 23.5l9 396l-7 7l-13.5 12t-10.5 6q-17 9 -38 9q-19 0 -36 -4l16 41q10 1 15 3q10 1 33 3q11 1 18.5 1h12.5l37 2q23 2 34 2t26 4q6 -9 11 -15t10.5 -12t12.5 -14t19 -21q10 -11 24.5 -26.5
t33.5 -35.5q29 -32 50 -55t35 -38l83 -89q16 -18 26 -28.5t16 -17.5t10.5 -12.5t10.5 -12.5q5 -5 8.5 -10t7.5 -10q6 -8 9.5 -14t10.5 -17l2 1q-2 12 -3 19t-2 16q-2 13 -3 48q-1 22 -1 35.5t-1 18.5l-2 227q0 8 -4 11t-18 3q-13 0 -30.5 -1t-49.5 -4l14 47h45h83
q27 0 43.5 0.5t28.5 1t22 1.5t24 2z" />
    <glyph glyph-name="Odieresis" unicode="&#xd6;" horiz-adv-x="667" 
d="M511 276q0 50 -14.5 94.5t-40 78t-59 53t-71.5 19.5q-37 0 -68 -16t-53.5 -44t-35.5 -66.5t-13 -84.5q0 -53 14 -98.5t39 -79t58.5 -52.5t72.5 -19q37 0 68 16.5t54 45t36 68t13 85.5zM301 683q0 -23 -16 -39.5t-39 -16.5t-39.5 16.5t-16.5 39.5t16.5 39t39.5 16t39 -16
t16 -39zM503 683q0 -23 -16 -39.5t-39 -16.5t-39 16.5t-16 39.5t16 39t39 16t39 -16t16 -39zM645 307q0 -67 -25 -125t-68.5 -100.5t-102.5 -67t-127 -24.5q-67 0 -122 20.5t-94.5 58t-61 90t-21.5 115.5q0 68 25 126.5t68.5 101t103.5 67t130 24.5q63 0 117 -22t93.5 -60
t62 -90.5t22.5 -113.5z" />
    <glyph glyph-name="Udieresis" unicode="&#xdc;" horiz-adv-x="685" 
d="M310 683q0 -23 -16 -39.5t-39 -16.5t-39 16.5t-16 39.5t16 39t39 16t39 -16t16 -39zM513 683q0 -23 -16 -39.5t-39 -16.5t-39 16.5t-16 39.5t16 39t39 16t39 -16t16 -39zM679 546h-18q-17 0 -25.5 -4.5t-13.5 -16.5q-6 -15 -7 -45q-2 -29 -3 -123q0 -24 -0.5 -38
t-0.5 -19l1 -64q0 -12 -0.5 -21.5t-0.5 -15.5q-3 -56 -21 -93q-14 -28 -39 -52t-57 -38q-61 -29 -167 -29q-172 0 -225 88q-11 18 -15.5 41t-4.5 59v8l7 337v7q0 14 -15 14h-12q-22 0 -31.5 -1.5t-24.5 -3.5l17 43q9 2 14 2t14 1q13 1 30.5 1h29.5h43h37t31.5 1l31 2t35.5 3
l-12 -42h-15q-28 0 -38.5 -12.5t-11.5 -47.5l-4 -173v-23v-56.5t1 -38.5q2 -39 13 -65q15 -36 51.5 -56t87.5 -20q46 0 79 16.5t47 47.5q5 11 8 25.5t5 36.5t3 45.5t2 46.5l6 225v9q0 20 -5.5 27.5t-21.5 7.5h-11t-13 -1q-16 -1 -21.5 -1t-15.5 -2l12 43h14l36 1l66 1h33.5
t29.5 1q13 0 23 0.5t18 1t17 1t21 2.5z" />
    <glyph glyph-name="aacute" unicode="&#xe1;" horiz-adv-x="407" 
d="M231 88q-1 17 -1 26v19v16t1 19l1 14q-11 -4 -19 -7t-13 -5q-22 -8 -41 -16t-25 -11q-13 -7 -13 -23q0 -20 17.5 -34t40.5 -14q11 0 21 3t31 13zM164 444q2 2 3 2l8.5 8.5t7.5 10.5q14 16 25.5 36.5t22.5 45.5l8 18q7 16 11 22.5t9 9.5q13 10 39 10h25q30 0 40.5 -3
t10.5 -11q0 -2 -0.5 -3t-0.5 -2l-3 -6q-4 -7 -8 -12.5t-10 -11.5l-14.5 -14.5l-21.5 -21.5q-31 -31 -51.5 -48t-34.5 -24q-15 -7 -43 -7h-9t-14 1zM237 72q-44 -81 -111 -81q-21 0 -39.5 8t-32.5 21.5t-22 31.5t-8 38q0 34 25 54q9 8 23.5 15.5t31.5 14.5q22 8 54 19t61 19
l10 3l2 32v18q0 17 -1.5 25.5t-5.5 14.5q-6 9 -20 15t-28 6q-10 0 -19.5 -2.5t-14.5 -6.5q-2 -2 -3 -5.5t-2 -10.5q-4 -6 -15 -11q-18 -8 -38 -13.5t-31 -5.5q-9 0 -15 4t-6 9q0 8 6 15t21 20q49 42 97 64t90 22q48 0 73 -23t25 -68v-15.5t-1 -18.5l-5 -92q0 -6 -0.5 -15.5
t-0.5 -22.5q0 -29 2.5 -43.5t7.5 -26.5q7 -14 18.5 -22.5t25.5 -8.5q9 0 16 2t21 8q-6 -20 -14 -29q-19 -19 -43.5 -30t-47.5 -11q-20 0 -38 9t-30 23q-8 10 -11 20.5t-5 30.5h-2z" />
    <glyph glyph-name="agrave" unicode="&#xe0;" horiz-adv-x="407" 
d="M231 88q-1 17 -1 26v19v16t1 19l1 14q-11 -4 -19 -7t-13 -5q-22 -8 -41 -16t-25 -11q-13 -7 -13 -23q0 -20 17.5 -34t40.5 -14q11 0 21 3t31 13zM258 446q-8 -2 -12 -2.5t-12 -0.5q-22 0 -38 5.5t-30 16.5q-34 27 -69 75q-25 34 -25 49q0 11 11 15t37 4q17 0 33.5 -1
t23.5 -3q7 -3 13 -10q4 -5 6.5 -9.5t7.5 -19.5l8 -24q5 -17 9 -26t6 -12l8 -18t9 -19t7 -13t7 -7zM237 72q-44 -81 -111 -81q-21 0 -39.5 8t-32.5 21.5t-22 31.5t-8 38q0 34 25 54q9 8 23.5 15.5t31.5 14.5q22 8 54 19t61 19l10 3l2 32v18q0 17 -1.5 25.5t-5.5 14.5
q-6 9 -20 15t-28 6q-10 0 -19.5 -2.5t-14.5 -6.5q-2 -2 -3 -5.5t-2 -10.5q-4 -6 -15 -11q-18 -8 -38 -13.5t-31 -5.5q-9 0 -15 4t-6 9q0 8 6 15t21 20q49 42 97 64t90 22q48 0 73 -23t25 -68v-15.5t-1 -18.5l-5 -92q0 -6 -0.5 -15.5t-0.5 -22.5q0 -29 2.5 -43.5t7.5 -26.5
q7 -14 18.5 -22.5t25.5 -8.5q9 0 16 2t21 8q-6 -20 -14 -29q-19 -19 -43.5 -30t-47.5 -11q-20 0 -38 9t-30 23q-8 10 -11 20.5t-5 30.5h-2z" />
    <glyph glyph-name="acircumflex" unicode="&#xe2;" horiz-adv-x="407" 
d="M231 88q-1 17 -1 26v19v16t1 19l1 14q-11 -4 -19 -7t-13 -5q-22 -8 -41 -16t-25 -11q-13 -7 -13 -23q0 -20 17.5 -34t40.5 -14q11 0 21 3t31 13zM273 612q3 -14 8.5 -27t18.5 -41q7 -14 12 -24.5t10.5 -19.5t11 -17t12.5 -18l9 -10.5t9 -8.5q-10 -2 -15 -2h-10
q-38 0 -60 22q-20 18 -32.5 39t-17.5 38q-9 -18 -28 -39.5t-42 -39.5q-26 -21 -63 -21q-5 0 -11.5 0.5t-17.5 1.5q11 10 20 19t21 24q8 9 17 21t20 26q18 24 28.5 38.5t19.5 32.5l3 6h77zM237 72q-44 -81 -111 -81q-21 0 -39.5 8t-32.5 21.5t-22 31.5t-8 38q0 34 25 54
q9 8 23.5 15.5t31.5 14.5q22 8 54 19t61 19l10 3l2 32v18q0 17 -1.5 25.5t-5.5 14.5q-6 9 -20 15t-28 6q-10 0 -19.5 -2.5t-14.5 -6.5q-2 -2 -3 -5.5t-2 -10.5q-4 -6 -15 -11q-18 -8 -38 -13.5t-31 -5.5q-9 0 -15 4t-6 9q0 8 6 15t21 20q49 42 97 64t90 22q48 0 73 -23
t25 -68v-15.5t-1 -18.5l-5 -92q0 -6 -0.5 -15.5t-0.5 -22.5q0 -29 2.5 -43.5t7.5 -26.5q7 -14 18.5 -22.5t25.5 -8.5q9 0 16 2t21 8q-6 -20 -14 -29q-19 -19 -43.5 -30t-47.5 -11q-20 0 -38 9t-30 23q-8 10 -11 20.5t-5 30.5h-2z" />
    <glyph glyph-name="adieresis" unicode="&#xe4;" horiz-adv-x="407" 
d="M231 88q-1 17 -1 26v19v16t1 19l1 14q-11 -4 -19 -7t-13 -5q-22 -8 -41 -16t-25 -11q-13 -7 -13 -23q0 -20 17.5 -34t40.5 -14q11 0 21 3t31 13zM371 506q0 -23 -16.5 -39.5t-39.5 -16.5t-39.5 16.5t-16.5 39.5t16.5 39.5t39.5 16.5t39.5 -16.5t16.5 -39.5zM184 506
q0 -23 -16.5 -39.5t-39.5 -16.5t-39.5 16.5t-16.5 39.5t16.5 39.5t39.5 16.5t39.5 -16.5t16.5 -39.5zM237 72q-44 -81 -111 -81q-21 0 -39.5 8t-32.5 21.5t-22 31.5t-8 38q0 34 25 54q9 8 23.5 15.5t31.5 14.5q22 8 54 19t61 19l10 3l2 32v18q0 17 -1.5 25.5t-5.5 14.5
q-6 9 -20 15t-28 6q-10 0 -19.5 -2.5t-14.5 -6.5q-2 -2 -3 -5.5t-2 -10.5q-4 -6 -15 -11q-18 -8 -38 -13.5t-31 -5.5q-9 0 -15 4t-6 9q0 8 6 15t21 20q49 42 97 64t90 22q48 0 73 -23t25 -68v-15.5t-1 -18.5l-5 -92q0 -6 -0.5 -15.5t-0.5 -22.5q0 -29 2.5 -43.5t7.5 -26.5
q7 -14 18.5 -22.5t25.5 -8.5q9 0 16 2t21 8q-6 -20 -14 -29q-19 -19 -43.5 -30t-47.5 -11q-20 0 -38 9t-30 23q-8 10 -11 20.5t-5 30.5h-2z" />
    <glyph glyph-name="atilde" unicode="&#xe3;" horiz-adv-x="407" 
d="M231 88q-1 17 -1 26v19v16t1 19l1 14q-11 -4 -19 -7t-13 -5q-22 -8 -41 -16t-25 -11q-13 -7 -13 -23q0 -20 17.5 -34t40.5 -14q11 0 21 3t31 13zM422 565q-10 -25 -22.5 -45.5t-26.5 -32.5q-30 -27 -72 -27q-8 0 -18 0.5t-25 3.5l-28 5q-54 10 -89 13.5t-49 3.5
q-50 0 -66 -30l-19 3q19 53 47 77t73 24q20 0 39.5 -2t55.5 -9l67 -12q28 -5 45 -5q24 0 40 6.5t24 23.5l3 6zM237 72q-44 -81 -111 -81q-21 0 -39.5 8t-32.5 21.5t-22 31.5t-8 38q0 34 25 54q9 8 23.5 15.5t31.5 14.5q22 8 54 19t61 19l10 3l2 32v18q0 17 -1.5 25.5
t-5.5 14.5q-6 9 -20 15t-28 6q-10 0 -19.5 -2.5t-14.5 -6.5q-2 -2 -3 -5.5t-2 -10.5q-4 -6 -15 -11q-18 -8 -38 -13.5t-31 -5.5q-9 0 -15 4t-6 9q0 8 6 15t21 20q49 42 97 64t90 22q48 0 73 -23t25 -68v-15.5t-1 -18.5l-5 -92q0 -6 -0.5 -15.5t-0.5 -22.5q0 -29 2.5 -43.5
t7.5 -26.5q7 -14 18.5 -22.5t25.5 -8.5q9 0 16 2t21 8q-6 -20 -14 -29q-19 -19 -43.5 -30t-47.5 -11q-20 0 -38 9t-30 23q-8 10 -11 20.5t-5 30.5h-2z" />
    <glyph glyph-name="aring" unicode="&#xe5;" horiz-adv-x="407" 
d="M231 88q-1 17 -1 26v19v16t1 19l1 14q-11 -4 -19 -7t-13 -5q-22 -8 -41 -16t-25 -11q-13 -7 -13 -23q0 -20 17.5 -34t40.5 -14q11 0 21 3t31 13zM251 523q0 17 -12.5 29.5t-29.5 12.5t-29 -12.5t-12 -29.5t12 -29.5t29 -12.5t29.5 12.5t12.5 29.5zM237 72
q-44 -81 -111 -81q-21 0 -39.5 8t-32.5 21.5t-22 31.5t-8 38q0 34 25 54q9 8 23.5 15.5t31.5 14.5q22 8 54 19t61 19l10 3l2 32v18q0 17 -1.5 25.5t-5.5 14.5q-6 9 -20 15t-28 6q-10 0 -19.5 -2.5t-14.5 -6.5q-2 -2 -3 -5.5t-2 -10.5q-4 -6 -15 -11q-18 -8 -38 -13.5
t-31 -5.5q-9 0 -15 4t-6 9q0 8 6 15t21 20q49 42 97 64t90 22q48 0 73 -23t25 -68v-15.5t-1 -18.5l-5 -92q0 -6 -0.5 -15.5t-0.5 -22.5q0 -29 2.5 -43.5t7.5 -26.5q7 -14 18.5 -22.5t25.5 -8.5q9 0 16 2t21 8q-6 -20 -14 -29q-19 -19 -43.5 -30t-47.5 -11q-20 0 -38 9
t-30 23q-8 10 -11 20.5t-5 30.5h-2zM293 523q0 -17 -6.5 -32.5t-18 -26.5t-26.5 -17.5t-33 -6.5q-35 0 -59 24t-24 59t24 59.5t59 24.5q18 0 33 -6.5t26.5 -18t18 -27t6.5 -32.5z" />
    <glyph glyph-name="ccedilla" unicode="&#xe7;" horiz-adv-x="370" 
d="M372 112q-11 -32 -20 -49t-22 -30q-13 -14 -33.5 -23.5t-46.5 -16.5q-3 -4 -3 -7t5 -4l12 -3l9 -1q40 -9 40 -34q0 -19 -19 -44q-24 -31 -67 -49.5t-90 -18.5q-35 0 -56.5 9t-21.5 23q0 9 9 17t21 13t23 5q7 0 16 -3q3 0 14 -3l14 -4q10 -3 15.5 -3.5t13.5 -0.5
q19 0 30.5 5.5t11.5 14.5q0 5 -4.5 7.5t-20.5 7.5l-13 4q-24 7 -24 17q0 7 8 17q5 6 13 12.5t25 17.5h-12q-39 0 -71 13t-55 37t-35.5 57t-12.5 73q0 57 26.5 109t71.5 84q57 40 139 40q51 0 83 -13.5t32 -34.5q0 -14 -16 -32q-10 -10 -23 -15.5t-24 -5.5h-8t-8 2
q-5 2 -15 7t-19 11l-10 7q-8 5 -10.5 6.5t-6.5 3.5q-10 2 -15 2q-17 0 -31.5 -9.5t-25.5 -26t-17.5 -38.5t-6.5 -46q0 -64 33.5 -104t87.5 -40q53 0 110 37z" />
    <glyph glyph-name="eacute" unicode="&#xe9;" horiz-adv-x="407" 
d="M289 266q-5 41 -19.5 59.5t-40.5 18.5q-33 0 -58 -22.5t-36 -61.5zM173 444l4 2l8.5 8.5t7.5 10.5q14 16 24.5 37l22.5 45l9 18q8 16 11.5 22.5t8.5 9.5q13 10 39 10h25q30 0 40.5 -3t10.5 -11q0 -2 -0.5 -3t-0.5 -2l-3 -6q-4 -7 -8 -12.5t-10 -11.5l-14.5 -14.5
l-21.5 -21.5q-31 -31 -51.5 -48t-34.5 -24q-15 -7 -43 -7h-9.5t-14.5 1zM137 226v-4q0 -67 36.5 -106t99.5 -39q68 0 130 42q-9 -29 -14.5 -41.5t-13.5 -24.5q-20 -29 -64 -46t-98 -17q-88 0 -138 48.5t-50 132.5q0 48 18 90t48.5 74t71 50.5t86.5 18.5q66 0 105.5 -44
t45.5 -125z" />
    <glyph glyph-name="egrave" unicode="&#xe8;" horiz-adv-x="407" 
d="M289 266q-5 41 -19.5 59.5t-40.5 18.5q-33 0 -58 -22.5t-36 -61.5zM268 446q-8 -2 -12 -2.5t-12 -0.5q-23 0 -38.5 5.5t-29.5 16.5q-18 14 -34.5 32t-35.5 43q-25 34 -25 49q0 11 11 15t38 4q17 0 33 -1t24 -3q5 -2 13 -10q4 -5 6 -9.5t7 -19.5l9 -24q13 -34 15 -38
l8 -18t9 -19t7 -13t7 -7zM137 226v-4q0 -67 36.5 -106t99.5 -39q68 0 130 42q-9 -29 -14.5 -41.5t-13.5 -24.5q-20 -29 -64 -46t-98 -17q-88 0 -138 48.5t-50 132.5q0 48 18 90t48.5 74t71 50.5t86.5 18.5q66 0 105.5 -44t45.5 -125z" />
    <glyph glyph-name="ecircumflex" unicode="&#xea;" horiz-adv-x="407" 
d="M289 266q-5 41 -19.5 59.5t-40.5 18.5q-33 0 -58 -22.5t-36 -61.5zM282 612q4 -14 9 -27t19 -41q7 -14 12 -24.5t10.5 -19.5t11 -17t12.5 -18q5 -7 8.5 -10.5t9.5 -8.5q-10 -2 -15.5 -2h-10.5q-37 0 -59 22q-20 18 -33 39t-18 38q-9 -18 -27.5 -39.5t-41.5 -39.5
q-26 -21 -63 -21q-5 0 -12 0.5t-18 1.5q12 10 20.5 19t21.5 24q8 9 17 21t20 26q18 24 28.5 38.5t19.5 32.5l3 6h76zM137 226v-4q0 -67 36.5 -106t99.5 -39q68 0 130 42q-9 -29 -14.5 -41.5t-13.5 -24.5q-20 -29 -64 -46t-98 -17q-88 0 -138 48.5t-50 132.5q0 48 18 90
t48.5 74t71 50.5t86.5 18.5q66 0 105.5 -44t45.5 -125z" />
    <glyph glyph-name="edieresis" unicode="&#xeb;" horiz-adv-x="407" 
d="M289 266q-5 41 -19.5 59.5t-40.5 18.5q-33 0 -58 -22.5t-36 -61.5zM381 506q0 -23 -16.5 -39.5t-39.5 -16.5t-39.5 16.5t-16.5 39.5t16.5 39.5t39.5 16.5t39.5 -16.5t16.5 -39.5zM193 506q0 -23 -16.5 -39.5t-39.5 -16.5t-39.5 16.5t-16.5 39.5t16.5 39.5t39.5 16.5
t39.5 -16.5t16.5 -39.5zM137 226v-4q0 -67 36.5 -106t99.5 -39q68 0 130 42q-9 -29 -14.5 -41.5t-13.5 -24.5q-20 -29 -64 -46t-98 -17q-88 0 -138 48.5t-50 132.5q0 48 18 90t48.5 74t71 50.5t86.5 18.5q66 0 105.5 -44t45.5 -125z" />
    <glyph glyph-name="iacute" unicode="&#xed;" horiz-adv-x="278" 
d="M104 444q2 2 3 2l8.5 8.5t7.5 10.5q14 16 25.5 36.5t22.5 45.5l8 18q8 17 12 23t9 9q12 10 38 10h25q30 0 40.5 -3t10.5 -11q0 -4 -1 -5l-3 -6q-4 -7 -8 -12.5t-10 -11.5t-14 -14.5t-21 -21.5q-32 -31 -52.5 -48t-34.5 -24q-15 -7 -43 -7h-9t-14 1zM273 -1l-24 1
q-19 1 -34.5 1.5t-27.5 0.5l-84 -2q-17 0 -27 -0.5t-17.5 -1t-14.5 -1.5t-17 -2l13 42h6q21 0 28.5 11.5t8.5 46.5l3 201v3q0 26 -4.5 36t-17.5 10h-6.5t-9.5 -1q-6 -1 -10 -1.5t-6 -0.5q-2 -1 -4 -1t-4 -1l12 38q7 1 12 1.5t10.5 1.5t13 2.5t19.5 4.5l52 11q27 6 47.5 11.5
t31.5 10.5q-5 -10 -6.5 -15.5t-3.5 -16.5t-3.5 -22.5t-2.5 -27.5t-2 -38t-1 -53l-3 -199q0 -9 20 -9h20l35 2l10 1z" />
    <glyph glyph-name="igrave" unicode="&#xec;" horiz-adv-x="278" 
d="M198 446q-8 -2 -12 -2.5t-12 -0.5q-22 0 -38 5.5t-30 16.5q-34 27 -69 75q-25 34 -25 49q0 11 11 15t37 4q17 0 33.5 -1t23.5 -3q7 -3 13 -10q4 -5 6.5 -9.5t7.5 -19.5l8 -24q5 -17 9.5 -26t5.5 -12q7 -16 18 -37l6.5 -13t6.5 -7zM273 -1l-24 1q-19 1 -34.5 1.5
t-27.5 0.5l-84 -2q-17 0 -27 -0.5t-17.5 -1t-14.5 -1.5t-17 -2l13 42h6q21 0 28.5 11.5t8.5 46.5l3 201v3q0 26 -4.5 36t-17.5 10h-6.5t-9.5 -1q-6 -1 -10 -1.5t-6 -0.5q-2 -1 -4 -1t-4 -1l12 38q7 1 12 1.5t10.5 1.5t13 2.5t19.5 4.5l52 11q27 6 47.5 11.5t31.5 10.5
q-5 -10 -6.5 -15.5t-3.5 -16.5t-3.5 -22.5t-2.5 -27.5t-2 -38t-1 -53l-3 -199q0 -9 20 -9h20l35 2l10 1z" />
    <glyph glyph-name="icircumflex" unicode="&#xee;" horiz-adv-x="278" 
d="M213 612q3 -14 8.5 -27t18.5 -41q7 -14 12 -24.5t10.5 -19.5t11 -17t12.5 -18l9 -10.5t9 -8.5q-10 -2 -15 -2h-10q-38 0 -60 22q-20 18 -32.5 39t-17.5 38q-9 -18 -28 -39.5t-42 -39.5q-12 -11 -28.5 -16t-34.5 -5q-5 0 -11.5 0.5t-17.5 1.5q11 10 20 19t21 24q8 9 17 21
t20 26q18 24 28.5 38.5t19.5 32.5l3 6h77zM273 -1l-24 1q-19 1 -34.5 1.5t-27.5 0.5l-84 -2q-17 0 -27 -0.5t-17.5 -1t-14.5 -1.5t-17 -2l13 42h6q21 0 28.5 11.5t8.5 46.5l3 201v3q0 26 -4.5 36t-17.5 10h-6.5t-9.5 -1q-6 -1 -10 -1.5t-6 -0.5q-2 -1 -4 -1t-4 -1l12 38
q7 1 12 1.5t10.5 1.5t13 2.5t19.5 4.5l52 11q27 6 47.5 11.5t31.5 10.5q-5 -10 -6.5 -15.5t-3.5 -16.5t-3.5 -22.5t-2.5 -27.5t-2 -38t-1 -53l-3 -199q0 -9 20 -9h20l35 2l10 1z" />
    <glyph glyph-name="idieresis" unicode="&#xef;" horiz-adv-x="278" 
d="M311 506q0 -23 -16.5 -39.5t-39.5 -16.5t-39.5 16.5t-16.5 39.5t16.5 39.5t39.5 16.5t39.5 -16.5t16.5 -39.5zM124 506q0 -23 -16.5 -39.5t-39.5 -16.5t-39.5 16.5t-16.5 39.5t16.5 39.5t39.5 16.5t39.5 -16.5t16.5 -39.5zM273 -1l-24 1q-19 1 -34.5 1.5t-27.5 0.5
l-84 -2q-17 0 -27 -0.5t-17.5 -1t-14.5 -1.5t-17 -2l13 42h6q21 0 28.5 11.5t8.5 46.5l3 201v3q0 26 -4.5 36t-17.5 10h-6.5t-9.5 -1q-6 -1 -10 -1.5t-6 -0.5q-2 -1 -4 -1t-4 -1l12 38q7 1 12 1.5t10.5 1.5t13 2.5t19.5 4.5l52 11q27 6 47.5 11.5t31.5 10.5
q-5 -10 -6.5 -15.5t-3.5 -16.5t-3.5 -22.5t-2.5 -27.5t-2 -38t-1 -53l-3 -199q0 -9 20 -9h20l35 2l10 1z" />
    <glyph glyph-name="ntilde" unicode="&#xf1;" horiz-adv-x="537" 
d="M491 565q-9 -25 -22 -45t-27 -33q-16 -14 -32.5 -20.5t-38.5 -6.5q-8 0 -18 1t-25 3l-29 5q-54 9 -88.5 13t-48.5 4q-50 0 -66 -30l-20 3q19 53 47.5 77t73.5 24q19 0 39 -2t56 -9l67 -12q12 -2 23.5 -3.5t21.5 -1.5q24 0 38.5 7.5t24.5 22.5l4 6zM533 -1l-28 1
q-21 1 -37.5 1.5t-30.5 0.5t-34 -0.5t-46 -1.5q-11 0 -18.5 -0.5t-14 -1t-12.5 -1t-14 -1.5l12 41q21 0 29 8t9 31l1 26l3 91v9v12t-1 15q-1 25 -3.5 38t-9.5 25q-17 32 -69 32q-37 0 -69 -16l-5 -260v-1q0 -5 2.5 -6t12.5 -1h9.5t10.5 1l39 3l-14 -45h-8q-2 0 -6 0.5
t-10 0.5l-28 1h-27q-49 0 -90 -1.5t-65 -5.5l12 42h9h2q9 0 13.5 1.5t8.5 6.5q5 7 7.5 20.5t3.5 33.5l5 191v6q0 24 -7 34.5t-24 10.5q-6 0 -12.5 -1.5l-19.5 -4.5l9 38q9 1 15.5 2.5t13 2.5t14.5 3l20 5l34 8.5t24 5.5q19 5 30 8.5t30 9.5l-20 -90h3q29 32 72.5 52t88.5 20
q66 0 95 -42q7 -9 11.5 -19t7 -23.5t3.5 -31.5t1 -43v-25.5t-1 -29t-2 -38.5t-3 -55l-2 -33v-2q0 -11 1.5 -13.5t9.5 -2.5h27q14 0 21.5 0.5t10.5 0.5q2 1 5.5 1t8.5 1z" />
    <glyph glyph-name="oacute" unicode="&#xf3;" horiz-adv-x="481" 
d="M336 179q0 33 -7.5 62t-21 50.5t-31.5 34t-39 12.5q-20 0 -36.5 -9t-28.5 -25.5t-18.5 -39t-6.5 -49.5q0 -33 7.5 -62t21 -50t32 -33.5t39.5 -12.5q39 0 64 34t25 88zM205 444l4 2l8.5 8.5t7.5 10.5q14 16 25.5 36.5t22.5 45.5l8 18q7 16 11 22.5t9 9.5q13 10 39 10h25
q30 0 40.5 -3t10.5 -11q0 -2 -0.5 -3t-0.5 -2l-3 -6q-4 -7 -8 -12.5t-10 -11.5l-14.5 -14.5l-21.5 -21.5q-31 -31 -51.5 -48t-34.5 -24q-15 -7 -43 -7h-9.5t-14.5 1zM459 219q0 -48 -18.5 -89.5t-51.5 -72t-77.5 -48t-96.5 -17.5q-43 0 -78 13.5t-60 37.5t-39 58t-14 75
q0 47 19 88t51.5 71.5t76 48t93.5 17.5q42 0 77.5 -12.5t62 -36t41 -55.5t14.5 -71v-7z" />
    <glyph glyph-name="ograve" unicode="&#xf2;" horiz-adv-x="481" 
d="M336 179q0 33 -7.5 62t-21 50.5t-31.5 34t-39 12.5q-20 0 -36.5 -9t-28.5 -25.5t-18.5 -39t-6.5 -49.5q0 -33 7.5 -62t21 -50t32 -33.5t39.5 -12.5q39 0 64 34t25 88zM300 446q-8 -2 -12 -2.5t-12 -0.5q-22 0 -38 5.5t-30 16.5q-34 27 -69 75q-25 34 -25 49q0 11 10.5 15
t37.5 4q17 0 33 -1t24 -3q5 -2 13 -10q4 -5 6.5 -9.5t7.5 -19.5l8 -24q5 -16 9 -25.5t6 -12.5l8 -18t9 -19t7 -13t7 -7zM459 219q0 -48 -18.5 -89.5t-51.5 -72t-77.5 -48t-96.5 -17.5q-43 0 -78 13.5t-60 37.5t-39 58t-14 75q0 47 19 88t51.5 71.5t76 48t93.5 17.5
q42 0 77.5 -12.5t62 -36t41 -55.5t14.5 -71v-7z" />
    <glyph glyph-name="ocircumflex" unicode="&#xf4;" horiz-adv-x="481" 
d="M336 179q0 33 -7.5 62t-21 50.5t-31.5 34t-39 12.5q-20 0 -36.5 -9t-28.5 -25.5t-18.5 -39t-6.5 -49.5q0 -33 7.5 -62t21 -50t32 -33.5t39.5 -12.5q39 0 64 34t25 88zM315 612q3 -14 8.5 -27t18.5 -41q7 -14 12 -24.5t10.5 -19.5t11 -17t12.5 -18l9 -10.5t9 -8.5
q-10 -2 -15 -2h-10q-38 0 -60 22q-20 18 -32.5 39t-17.5 38q-10 -18 -28.5 -39.5t-41.5 -39.5q-26 -21 -63 -21q-5 0 -11.5 0.5t-17.5 1.5q11 10 20 19t21 24q8 9 17 21t20 26q18 24 28.5 38.5t19.5 32.5l3 6h77zM459 219q0 -48 -18.5 -89.5t-51.5 -72t-77.5 -48
t-96.5 -17.5q-43 0 -78 13.5t-60 37.5t-39 58t-14 75q0 47 19 88t51.5 71.5t76 48t93.5 17.5q42 0 77.5 -12.5t62 -36t41 -55.5t14.5 -71v-7z" />
    <glyph glyph-name="odieresis" unicode="&#xf6;" horiz-adv-x="481" 
d="M336 179q0 33 -7.5 62t-21 50.5t-31.5 34t-39 12.5q-20 0 -36.5 -9t-28.5 -25.5t-18.5 -39t-6.5 -49.5q0 -33 7.5 -62t21 -50t32 -33.5t39.5 -12.5q39 0 64 34t25 88zM413 506q0 -23 -16.5 -39.5t-39.5 -16.5t-39.5 16.5t-16.5 39.5t16.5 39.5t39.5 16.5t39.5 -16.5
t16.5 -39.5zM225 506q0 -23 -16 -39.5t-39 -16.5t-39.5 16.5t-16.5 39.5t16.5 39.5t39.5 16.5t39 -16.5t16 -39.5zM459 219q0 -48 -18.5 -89.5t-51.5 -72t-77.5 -48t-96.5 -17.5q-43 0 -78 13.5t-60 37.5t-39 58t-14 75q0 47 19 88t51.5 71.5t76 48t93.5 17.5
q42 0 77.5 -12.5t62 -36t41 -55.5t14.5 -71v-7z" />
    <glyph glyph-name="otilde" unicode="&#xf5;" horiz-adv-x="481" 
d="M336 179q0 33 -7.5 62t-21 50.5t-31.5 34t-39 12.5q-20 0 -36.5 -9t-28.5 -25.5t-18.5 -39t-6.5 -49.5q0 -33 7.5 -62t21 -50t32 -33.5t39.5 -12.5q39 0 64 34t25 88zM464 565q-10 -25 -22.5 -45.5t-26.5 -32.5q-30 -27 -72 -27q-8 0 -18 0.5t-25 3.5l-28 5
q-54 10 -89 13.5t-49 3.5q-50 0 -66 -30l-19 3q19 53 47 77t73 24q19 0 39 -2t56 -9l67 -12q28 -5 45 -5q24 0 40 6.5t24 23.5l3 6zM459 219q0 -48 -18.5 -89.5t-51.5 -72t-77.5 -48t-96.5 -17.5q-43 0 -78 13.5t-60 37.5t-39 58t-14 75q0 47 19 88t51.5 71.5t76 48
t93.5 17.5q42 0 77.5 -12.5t62 -36t41 -55.5t14.5 -71v-7z" />
    <glyph glyph-name="uacute" unicode="&#xfa;" horiz-adv-x="537" 
d="M233 444q2 1 3 2q7 6 9.5 8.5t7.5 10.5q22 33 47 82l9 18q8 16 11.5 22.5t8.5 9.5q13 10 39 10h25q30 0 40.5 -3t10.5 -11q0 -3 -2 -5q0 -3 -3 -6q-3 -7 -7 -12.5t-10 -12t-14.5 -14.5t-21.5 -21q-31 -31 -51.5 -48t-34.5 -24q-15 -7 -43 -7h-9.5t-14.5 1zM23 378l25 4
l64 10l31 6q20 4 32.5 6t19.5 4q1 1 12 4q-4 -10 -5.5 -15.5t-3.5 -14.5q-2 -14 -4 -32t-3 -35l-4 -85q-1 -11 -1 -22v-22q0 -36 3 -56.5t11 -31.5q21 -29 68 -29q20 0 38 5.5t38 18.5v38.5t0.5 29.5t1 31.5t1.5 45.5l2 63v7q0 20 -6.5 28.5t-21.5 8.5q-24 0 -51 -7l13 42
q14 1 24.5 2t20.5 2.5t22 3t29 4.5q18 3 32 5.5t25 4.5q15 3 24 5t26 7q-5 -10 -6.5 -15.5t-3.5 -15.5q-1 -6 -2 -11t-1 -10q-3 -25 -6 -65q-3 -39 -3 -59l-2 -114v-36q0 -17 1.5 -24.5t5.5 -12.5q6 -8 19 -8q7 0 17 1.5t18 3.5l26 6l-14 -43l-21 -3q-49 -7 -84 -12.5
t-69 -7.5l-18 -1l2 22q0 10 3 31q2 17 2.5 22t2.5 14h-1l-5 -6q-30 -36 -72.5 -58t-91.5 -22q-48 0 -79 27q-21 19 -29 43.5t-8 73.5v29.5t1 32.5l5 100v14q0 35 -30 35q-8 0 -13.5 -1t-15.5 -4z" />
    <glyph glyph-name="ugrave" unicode="&#xf9;" horiz-adv-x="537" 
d="M328 446q-8 -2 -12 -2.5t-12 -0.5q-23 0 -38.5 5t-30.5 17q-34 26 -69 75q-25 34 -25 49q0 11 11 15t38 4q17 0 33 -1t23 -3q7 -3 14 -10q3 -5 5.5 -9.5t7.5 -19.5l9 -24q13 -34 15 -38l8 -18t9 -19t7 -13t7 -7zM23 378l25 4l64 10l31 6q20 4 32.5 6t19.5 4q1 1 12 4
q-4 -10 -5.5 -15.5t-3.5 -14.5q-2 -14 -4 -32t-3 -35l-4 -85q-1 -11 -1 -22v-22q0 -36 3 -56.5t11 -31.5q21 -29 68 -29q20 0 38 5.5t38 18.5v38.5t0.5 29.5t1 31.5t1.5 45.5l2 63v7q0 20 -6.5 28.5t-21.5 8.5q-24 0 -51 -7l13 42q14 1 24.5 2t20.5 2.5t22 3t29 4.5
q18 3 32 5.5t25 4.5q15 3 24 5t26 7q-5 -10 -6.5 -15.5t-3.5 -15.5q-1 -6 -2 -11t-1 -10q-3 -25 -6 -65q-3 -39 -3 -59l-2 -114v-36q0 -17 1.5 -24.5t5.5 -12.5q6 -8 19 -8q7 0 17 1.5t18 3.5l26 6l-14 -43l-21 -3q-49 -7 -84 -12.5t-69 -7.5l-18 -1l2 22q0 10 3 31
q2 17 2.5 22t2.5 14h-1l-5 -6q-30 -36 -72.5 -58t-91.5 -22q-48 0 -79 27q-21 19 -29 43.5t-8 73.5v29.5t1 32.5l5 100v14q0 35 -30 35q-8 0 -13.5 -1t-15.5 -4z" />
    <glyph glyph-name="ucircumflex" unicode="&#xfb;" horiz-adv-x="537" 
d="M342 612q4 -14 9 -27t19 -41q7 -14 12 -24.5t10.5 -19.5t11 -17t12.5 -18q5 -7 8.5 -10.5t9.5 -8.5q-10 -2 -15.5 -2h-10.5q-35 0 -59 22q-19 19 -32.5 39.5t-18.5 37.5q-9 -18 -27.5 -39.5t-41.5 -39.5q-26 -21 -63 -21q-5 0 -12 0.5t-18 1.5q12 10 20.5 19t21.5 24
q8 9 17 21t20 26q18 24 28.5 38.5t19.5 32.5l3 6h76zM23 378l25 4l64 10l31 6q20 4 32.5 6t19.5 4q1 1 12 4q-4 -10 -5.5 -15.5t-3.5 -14.5q-2 -14 -4 -32t-3 -35l-4 -85q-1 -11 -1 -22v-22q0 -36 3 -56.5t11 -31.5q21 -29 68 -29q20 0 38 5.5t38 18.5v38.5t0.5 29.5t1 31.5
t1.5 45.5l2 63v7q0 20 -6.5 28.5t-21.5 8.5q-24 0 -51 -7l13 42q14 1 24.5 2t20.5 2.5t22 3t29 4.5q18 3 32 5.5t25 4.5q15 3 24 5t26 7q-5 -10 -6.5 -15.5t-3.5 -15.5q-1 -6 -2 -11t-1 -10q-3 -25 -6 -65q-3 -39 -3 -59l-2 -114v-36q0 -17 1.5 -24.5t5.5 -12.5q6 -8 19 -8
q7 0 17 1.5t18 3.5l26 6l-14 -43l-21 -3q-49 -7 -84 -12.5t-69 -7.5l-18 -1l2 22q0 10 3 31q2 17 2.5 22t2.5 14h-1l-5 -6q-30 -36 -72.5 -58t-91.5 -22q-48 0 -79 27q-21 19 -29 43.5t-8 73.5v29.5t1 32.5l5 100v14q0 35 -30 35q-8 0 -13.5 -1t-15.5 -4z" />
    <glyph glyph-name="udieresis" unicode="&#xfc;" horiz-adv-x="537" 
d="M441 506q0 -23 -16.5 -39.5t-39.5 -16.5t-39.5 16.5t-16.5 39.5t16.5 39.5t39.5 16.5t39.5 -16.5t16.5 -39.5zM253 506q0 -23 -16.5 -39.5t-39.5 -16.5t-39.5 16.5t-16.5 39.5t16.5 39.5t39.5 16.5t39.5 -16.5t16.5 -39.5zM23 378l25 4l64 10l31 6q20 4 32.5 6t19.5 4
q1 1 12 4q-4 -10 -5.5 -15.5t-3.5 -14.5q-2 -14 -4 -32t-3 -35l-4 -85q-1 -11 -1 -22v-22q0 -36 3 -56.5t11 -31.5q21 -29 68 -29q20 0 38 5.5t38 18.5v38.5t0.5 29.5t1 31.5t1.5 45.5l2 63v7q0 20 -6.5 28.5t-21.5 8.5q-24 0 -51 -7l13 42q14 1 24.5 2t20.5 2.5t22 3
t29 4.5q18 3 32 5.5t25 4.5q15 3 24 5t26 7q-5 -10 -6.5 -15.5t-3.5 -15.5q-1 -6 -2 -11t-1 -10q-3 -25 -6 -65q-3 -39 -3 -59l-2 -114v-36q0 -17 1.5 -24.5t5.5 -12.5q6 -8 19 -8q7 0 17 1.5t18 3.5l26 6l-14 -43l-21 -3q-49 -7 -84 -12.5t-69 -7.5l-18 -1l2 22q0 10 3 31
q2 17 2.5 22t2.5 14h-1l-5 -6q-30 -36 -72.5 -58t-91.5 -22q-48 0 -79 27q-21 19 -29 43.5t-8 73.5v29.5t1 32.5l5 100v14q0 35 -30 35q-8 0 -13.5 -1t-15.5 -4z" />
    <glyph glyph-name="dagger" unicode="&#x2020;" horiz-adv-x="444" 
d="M296 614q-16 -24 -26.5 -74.5t-10.5 -126.5v-25l78 2q5 0 14 0.5t21 1.5q8 1 13 1t9 1q12 2 19.5 3.5t14.5 6.5q-15 -41 -42 -58q-8 -5 -15.5 -7.5t-18.5 -4.5q-16 -3 -32 -4t-39 -1h-25l-4 -148l-2 -201v-10q0 -62 5 -92t16 -33q-28 -14 -60 -14q-21 0 -27 10
q-3 5 -4 14.5t-1 36.5q0 12 0.5 23.5t0.5 22.5l3 107l9 286l-68 1h-39t-27 -1t-18.5 -2.5t-14.5 -3.5l30 60q5 2 8.5 2.5t8.5 1.5q4 0 8.5 0.5t11.5 0.5h19.5h33.5h49l2 58v38q0 78 -13 98q-3 5 -12 10z" />
    <glyph glyph-name="degree" unicode="&#xb0;" horiz-adv-x="287" 
d="M214 486q0 29 -20.5 49.5t-49.5 20.5t-49.5 -20.5t-20.5 -49.5t20.5 -49.5t49.5 -20.5t49.5 20.5t20.5 49.5zM265 487q0 -25 -9.5 -47t-26 -38.5t-38.5 -26t-47 -9.5q-26 0 -48 9.5t-39 25.5t-26.5 38t-9.5 47t9.5 46.5t26.5 38t39 26t48 9.5q25 0 47 -9.5t38.5 -25.5
t26 -37.5t9.5 -46.5z" />
    <glyph glyph-name="cent" unicode="&#xa2;" horiz-adv-x="389" 
d="M227 339q-38 -7 -61.5 -40.5t-23.5 -82.5q0 -23 5.5 -45.5t15.5 -39.5q9 -16 22.5 -27.5t36.5 -23.5zM259 74h16q26 0 57.5 10.5t58.5 27.5q-6 -19 -9.5 -27.5t-8.5 -17.5q-10 -22 -24 -34q-14 -13 -38 -23.5t-54 -16.5v-14q0 -32 3.5 -52t9.5 -24q-17 -13 -33 -13
q-11 0 -14.5 10t-3.5 41v8l1 40h-7q-85 0 -135 48t-50 130q0 90 62 160q27 30 60 46.5t78 23.5l1 32q0 11 0.5 17.5t2.5 17.5l44 5q-4 -7 -5.5 -20t-3.5 -37l-1 -11h4q58 0 92 -13t34 -35q0 -15 -17 -32q-9 -9 -22.5 -15t-24.5 -6t-20.5 4.5t-29.5 15.5l-7 4q-3 3 -10 6z
" />
    <glyph glyph-name="sterling" unicode="&#xa3;" horiz-adv-x="574" 
d="M94 300l9 -1q8 -1 12 -1t12 -1l1 36q2 58 10 97.5t25 68.5q30 53 87.5 81t136.5 28q29 0 55.5 -3.5t46 -10t31 -14.5t11.5 -17q0 -15 -18 -27q-14 -9 -29 -14.5t-29 -5.5q-10 0 -23 3t-33 11l-20 8q-14 6 -21.5 7.5t-18.5 1.5q-39 0 -58 -27q-13 -18 -19.5 -45.5
t-10.5 -81.5l-6 -95q11 -1 17 -1h17q28 0 54.5 1.5t41.5 4.5q11 2 19.5 4.5t23.5 8.5q-9 -23 -19 -37.5t-25 -22.5t-36.5 -11t-52.5 -3h-18h-23l-2 -18q-2 -15 -2.5 -26t-1.5 -17q-6 -56 -18 -83q-7 -16 -18 -30t-22 -22l1 -2h6q18 0 49 -6t60 -16l91 -31q41 -14 73 -22.5
t43 -8.5q21 0 45 25l46 3q-20 -26 -46.5 -51t-51.5 -42q-36 -24 -73 -24q-12 0 -23.5 2t-27.5 7q-9 3 -16.5 5t-16 5t-20 7.5t-30.5 11.5l-150 56q-20 8 -44.5 15t-41.5 12q-14 3 -25 3h-13l23 36q31 0 46 18q32 35 36 166l1 29l-61 -3z" />
    <glyph glyph-name="section" unicode="&#xa7;" horiz-adv-x="352" 
d="M137 -127q16 8 24 13t19 13q17 13 31.5 32t25 40.5t16 44.5t5.5 45q0 21 -6 48q-6 30 -18 60q-1 3 -5 12.5t-11 25.5l-35 86q-20 48 -28.5 82.5t-8.5 67.5q0 23 4 39.5t12 30.5q8 13 17.5 22.5t32.5 26.5l-1 3q-62 -24 -91 -67.5t-29 -111.5q0 -30 8 -62q3 -11 6 -20.5
t7 -20.5t10 -26t15 -37l39 -92q13 -31 20 -59t7 -53q0 -29 -8.5 -56t-23.5 -47q-7 -9 -14.5 -16t-23.5 -20zM62 171q-21 50 -30.5 91t-9.5 81q0 57 22 106t61 84t93 55t118 20q42 0 67.5 -12t25.5 -32q0 -19 -15.5 -30.5t-41.5 -11.5q-6 0 -10.5 0.5t-9.5 1.5
q-6 2 -17.5 6.5t-22.5 10.5l-7 4q-8 5 -17.5 6.5t-17.5 1.5q-18 0 -29.5 -15t-11.5 -38q0 -16 5 -36q6 -22 16.5 -53.5t20.5 -54.5l34 -80q4 -10 7.5 -20.5t8.5 -21.5q14 -38 19 -64.5t5 -58.5q0 -57 -20.5 -107t-61.5 -90q-82 -81 -210 -81q-52 0 -81.5 11t-29.5 30
q0 17 19.5 29t45.5 12q14 0 28 -2.5t28 -9.5l18 -9q19 -9 34 -9q21 0 34 17t13 46q0 20 -6.5 42.5t-24.5 64.5l-29 68z" />
    <glyph glyph-name="bullet" unicode="&#x2022;" horiz-adv-x="216" 
d="M183 220q0 -32 -22 -54.5t-54 -22.5t-54 22.5t-22 54.5t22 54t54 22t54 -22t22 -54z" />
    <glyph glyph-name="paragraph" unicode="&#xb6;" horiz-adv-x="623" 
d="M387 524l-2 -46q-3 -63 -6 -108.5t-5 -76.5q-2 -35 -3.5 -89.5t-4.5 -129.5q-3 -96 -3 -141q0 -40 5.5 -62.5t16.5 -32.5q-16 -8 -27 -8q-8 0 -13 4t-8 14.5t-4 30t-1 51.5v37.5t2 43.5q2 38 4 61.5t6 46.5l-2 1q-15 -20 -47.5 -33t-67.5 -13q-42 0 -75.5 15t-57.5 42
t-37 65.5t-13 85.5q0 64 22.5 120.5t63.5 93.5q41 38 102 56q15 5 29 8t30.5 5.5t37 3.5t48.5 2l46 1q8 0 20 1t29 2q22 1 38 2.5t29 3.5t24.5 4.5t24.5 6.5q16 5 24 10t15 13h6q-7 -23 -14 -35.5t-18 -20.5q-42 -30 -135 -33l-3 -38q-5 -65 -9 -165q-6 -121 -9.5 -212
t-3.5 -153q0 -38 2.5 -59t9.5 -36q2 -7 5.5 -12t6.5 -8q-19 -8 -29 -8q-12 0 -17 10q-8 19 -8 86q0 10 0.5 28.5t1 39.5t1 43t1.5 41q1 67 9 231q2 45 3.5 73.5t3 50t2.5 41t3 46.5z" />
    <glyph glyph-name="germandbls" unicode="&#xdf;" horiz-adv-x="556" 
d="M228 -1q-13 2 -25 2.5t-35 0.5q-47 0 -85 -2t-61 -6l16 41q3 -1 8 -1q16 0 25 12q4 6 6 12q2 8 2.5 15t0.5 29v131q0 25 1.5 50.5t3.5 48.5q-19 0 -28 -0.5t-26 -2.5l24 56h36q6 34 13.5 55t22.5 44q37 59 94.5 90t129.5 31q67 0 108.5 -30t41.5 -78q0 -25 -13 -51
q-5 -9 -10.5 -17t-12.5 -15q-3 -3 -12 -12.5t-25 -24.5l-22 -21q-15 -15 -20.5 -25.5t-5.5 -21.5q0 -23 31 -40l26 -14l29 -16q36 -20 53 -45t17 -60q0 -31 -12.5 -57.5t-35 -45.5t-54 -29.5t-68.5 -10.5q-52 0 -96 11q2 19 2.5 29.5t0.5 31.5v17.5t-0.5 14t-1 13.5t-0.5 17
h33q-2 -5 -2 -7v-6q0 -12 7 -23t18.5 -20t26.5 -14t31 -5q20 0 33.5 11.5t13.5 28.5q0 32 -59 64l-25 14q-64 35 -64 85q0 21 8.5 38t37.5 46l21 22q31 33 41.5 52.5t10.5 42.5q0 39 -26.5 65.5t-67.5 26.5q-31 0 -55 -20t-36 -55q-5 -17 -9 -36.5t-6 -48t-3 -68.5t-1 -97
v-165q0 -11 1.5 -13.5t10.5 -2.5q8 0 15 0.5t19 1.5z" />
    <glyph glyph-name="registered" unicode="&#xae;" 
 />
    <glyph glyph-name="copyright" unicode="&#xa9;" horiz-adv-x="718" 
d="M534 128q-5 -20 -8.5 -30t-8.5 -18q-9 -17 -27 -32t-40.5 -26t-48.5 -17t-52 -6q-38 0 -70 12.5t-54.5 36t-35 55.5t-12.5 71q0 47 16 86t45.5 67.5t70 44t88.5 15.5q45 0 74 -11.5t29 -29.5q0 -12 -14.5 -21t-34.5 -9q-25 0 -46 10l-9 4q-8 4 -17.5 5.5t-17.5 1.5
q-22 0 -40.5 -10t-32 -27.5t-21.5 -41t-8 -51.5q0 -31 10.5 -57t29 -45.5t43.5 -30.5t54 -11q18 0 37.5 5t37.5 13.5t33 20.5t25 26h5zM626 187q0 61 -20.5 112.5t-56.5 89t-86 59t-108 21.5q-57 0 -105 -21.5t-83.5 -60t-55 -91.5t-19.5 -115q0 -59 20 -109t56 -87
t84.5 -57.5t105.5 -20.5q58 0 107 21t85 58.5t56 89t20 111.5zM687 209q0 -75 -27 -139.5t-75 -112.5t-112.5 -75t-139.5 -27q-66 0 -122 23t-96.5 64t-63.5 97.5t-23 124.5q0 75 27 139.5t74 112t111 74.5t138 27q67 0 123.5 -23t97.5 -64t64.5 -97.5t23.5 -123.5z" />
    <glyph glyph-name="trademark" unicode="&#x2122;" 
 />
    <glyph glyph-name="acute" unicode="&#xb4;" horiz-adv-x="0" 
d="M-35 444q2 2 3 2l8.5 8.5t7.5 10.5q14 16 25.5 36.5t22.5 45.5l8 18q8 17 12 23t9 9q12 10 38 10h26q29 0 39.5 -3t10.5 -11q0 -4 -1 -5l-3 -6q-4 -7 -8 -12.5t-10 -11.5t-14 -14.5t-21 -21.5q-32 -31 -52.5 -48t-34.5 -24q-15 -7 -43 -7h-9t-14 1z" />
    <glyph glyph-name="dieresis" unicode="&#xa8;" horiz-adv-x="0" 
d="M172 506q0 -23 -16.5 -39.5t-39.5 -16.5t-39.5 16.5t-16.5 39.5t16.5 39.5t39.5 16.5t39.5 -16.5t16.5 -39.5zM-15 506q0 -23 -16.5 -39.5t-39.5 -16.5t-39.5 16.5t-16.5 39.5t16.5 39.5t39.5 16.5t39.5 -16.5t16.5 -39.5z" />
    <glyph glyph-name="AE" unicode="&#xc6;" horiz-adv-x="778" 
d="M342 321q0 18 0.5 31t1.5 28.5t2.5 36t3.5 52.5q1 15 2 23.5t1.5 15t1 12t1.5 13.5h-12q-6 -19 -10.5 -30t-11.5 -30q-11 -26 -21 -48.5t-20 -42.5l-56 -109h117v48zM762 142q-5 -9 -7.5 -14.5t-6.5 -13.5l-31 -70l-21 -45q-8 -2 -14 -2.5t-12.5 -1.5t-15 -1h-22.5h-13
t-12 1l-54 1q-51 1 -87 2t-73 1h-42.5t-32 -1t-28 -2t-30.5 -2l16 40h11q16 0 24.5 4t13.5 12t8.5 26t4.5 40l2 100h-142l-81 -168q0 -1 -0.5 -1.5t-0.5 -1.5q0 -6 23 -6q8 0 18.5 0.5t26.5 1.5q4 0 9 0.5t13 0.5l-20 -45h-10l-29 2l-23 1q-7 0 -15 0.5t-18 0.5t-22 -0.5
t-26 -0.5q-22 -1 -31.5 -1.5t-25.5 -2.5l16 38q14 2 19.5 7t15.5 23l257 483l-48 -2h-5.5t-8.5 -1q-12 -1 -16.5 -2t-12.5 -3l18 38q3 1 5.5 1h4.5q16 2 50.5 3.5t69.5 1.5h152h72t65 1q32 1 43 1.5t18 2.5q7 3 11 8l2 3h6l-1 -8q-2 -5 -2.5 -9.5t-1.5 -9.5q-1 -7 -1.5 -18
t-2.5 -27q-3 -47 -3 -65v-6.5t1 -8.5h-36q2 10 2.5 15.5t0.5 10.5q0 20 -19 29q-11 4 -21 6q-6 2 -14 2.5t-18 1.5q-9 1 -15.5 1.5t-10.5 0.5l-86 2h-13h-5.5t-6.5 -1l-4 -180l51 -1l25 -1h6q8 0 19.5 0.5t27.5 1.5q22 1 32.5 3.5t18.5 9.5q11 8 12 28h32l-1 -17
q-2 -40 -4.5 -74t-2.5 -62v-22h-35q2 8 2.5 13t0.5 10q0 20 -11 29q-12 9 -47.5 14t-86.5 5h-7l-34 -1l-3 -182v-1q0 -10 10.5 -12.5t45.5 -3.5l42 -1q6 -1 12 -1h13q43 0 62.5 2.5t32.5 9.5q34 17 44 60h42z" />
    <glyph glyph-name="Oslash" unicode="&#xd8;" horiz-adv-x="667" 
d="M186 165q3 5 5 7l7 7q24 25 84 90q35 38 64 70t55 58l54 56q-62 69 -130 69q-37 0 -68.5 -17t-55 -46.5t-36.5 -69.5t-13 -87q0 -38 8 -71.5t26 -65.5zM212 128q23 -32 57 -49.5t72 -17.5q36 0 68 16.5t55 46t36.5 69t13.5 84.5q0 24 -4 52.5t-10 46.5q-4 11 -8 19.5
t-13 24.5q-17 -19 -29 -32.5t-25 -27.5t-29 -31t-41 -44q-30 -33 -49.5 -54t-34.5 -37t-28 -31t-31 -35zM32 -8q7 6 10.5 10l10.5 12l50 60q-9 9 -15 16t-11 13.5t-9 13t-9 14.5q-17 31 -27 69t-10 79q0 66 25 123.5t68.5 100t103 67t127.5 24.5q35 0 71.5 -8t65.5 -22
q17 -8 26.5 -14t24.5 -19l47 50h61q-8 -5 -11 -8l-6 -6l-60 -63q37 -35 58.5 -87.5t21.5 -109.5q0 -66 -25 -124t-69 -100.5t-103.5 -67t-127.5 -24.5q-57 0 -103.5 14t-78.5 41l-47 -54h-59z" />
    <glyph glyph-name="plusminus" unicode="&#xb1;" 
 />
    <glyph glyph-name="yen" unicode="&#xa5;" 
 />
    <glyph glyph-name="mu" unicode="&#xb5;" 
 />
    <glyph glyph-name="mu" unicode="&#x3bc;" 
 />
    <glyph glyph-name="ordfeminine" unicode="&#xaa;" 
 />
    <glyph glyph-name="ordmasculine" unicode="&#xba;" 
 />
    <glyph glyph-name="ae" unicode="&#xe6;" horiz-adv-x="574" 
d="M234 88q-5 11 -6.5 17.5t-3.5 15.5q-2 7 -2 13.5t-1 26.5l-1 13q-29 -8 -44.5 -13.5t-29.5 -10.5q-30 -11 -30 -35q0 -18 17.5 -32t41.5 -14q14 0 27.5 4t31.5 15zM460 273q-2 33 -14.5 51t-32.5 18q-28 0 -54 -28q-14 -15 -21.5 -31t-14.5 -47zM329 205q5 -63 37 -96
t88 -33q72 0 126 39q-8 -26 -16.5 -42.5t-23.5 -31.5q-10 -11 -26.5 -20t-36 -16t-41.5 -10.5t-44 -3.5q-100 0 -147 77q-30 -39 -59 -56t-67 -17q-42 0 -71 24.5t-29 60.5q0 19 7.5 36t21.5 29q10 8 22.5 15t35.5 15l22.5 7.5t22 7t25 7t30.5 8.5l16 4l1 22v11
q0 42 -11.5 60.5t-37.5 18.5q-41 0 -44 -21q-16 -12 -40.5 -20.5t-44.5 -8.5q-14 0 -14 11q0 9 11 22q16 19 41.5 37t53 32t55.5 22.5t51 8.5q72 0 72 -63h1q22 29 53.5 45t67.5 16q57 0 93 -41q6 -8 11 -15.5t8 -15.5q6 -14 9 -26.5t8 -40.5z" />
    <glyph glyph-name="oslash" unicode="&#xf8;" horiz-adv-x="481" 
d="M311 294q-30 42 -72 42q-21 0 -38.5 -10t-30.5 -28t-20.5 -42.5t-7.5 -52.5q0 -37 11 -67q8 9 10.5 12.5t7.5 7.5zM171 102q28 -46 77 -46q20 0 37 9.5t30 26.5t20 40t7 50q0 15 -3 38q-2 14 -3.5 21.5t-6.5 20.5q-5 -5 -7 -7.5t-7 -7.5zM-1 -20l70 70q-45 53 -45 122
q0 47 19 88.5t51.5 72.5t76 49t92.5 18q37 0 69 -9t51 -25l44 41h55l-73 -64q23 -21 36.5 -54t13.5 -71q0 -47 -19 -88t-52 -72t-77.5 -49t-94.5 -18q-35 0 -65.5 9t-53.5 26l-43 -46h-55z" />
    <glyph glyph-name="questiondown" unicode="&#xbf;" horiz-adv-x="352" 
d="M124 418q0 32 22.5 54t54.5 22t54 -22t22 -54t-22 -54.5t-54 -22.5t-54.5 22.5t-22.5 54.5zM243 329q7 -26 9 -37.5t2 -27.5q0 -32 -16 -56q-3 -5 -6.5 -8.5l-7.5 -7.5q-8 -6 -16 -9.5t-31 -14.5l-50 -22q-30 -14 -41.5 -23t-11.5 -23q0 -13 7 -20q5 -5 21.5 -9.5
t49.5 -9.5l46 -7q10 -2 17.5 -2.5t13.5 -2.5q46 -7 70 -27q26 -21 26 -61q0 -18 -4 -36.5t-15 -43.5l-3 1v3q0 17 -33.5 31t-93.5 21l-36 4q-28 3 -46.5 9.5t-30.5 15.5q-20 16 -29 40t-9 60q0 83 39 133q9 14 28 27l10.5 7t10 6t14 7.5t21.5 10.5l48 23q31 14 31 39v6z" />
    <glyph glyph-name="exclamdown" unicode="&#xa1;" horiz-adv-x="259" 
d="M49 420q0 32 22.5 54.5t54.5 22.5t54 -22.5t22 -54.5t-22 -54t-54 -22t-54.5 22t-22.5 54zM215 -83q-12 -2 -21 -2.5t-15 -2.5q-7 -1 -25 -4.5t-48 -9.5l-25 -5l-17.5 -3.5t-15 -3.5t-17.5 -5q7 12 9.5 19.5t7.5 26.5q3 13 5.5 25t4.5 23q5 24 10 64.5t10 92.5l10 92
q3 27 3 40q0 27 -10 35l16 5q17 5 25 6t16 1q17 0 25 -12q4 -8 6 -13q2 -6 3.5 -13t2.5 -16.5t1.5 -24t1.5 -35.5l3 -73l3 -97q1 -35 4.5 -52.5t9.5 -27.5q7 -9 16 -12q2 -1 5 -1h2z" />
    <glyph glyph-name="logicalnot" unicode="&#xac;" 
 />
    <glyph glyph-name="florin" unicode="&#x192;" horiz-adv-x="315" 
d="M66 299l31 -1q9 159 72 235.5t184 76.5q45 0 69.5 -10t24.5 -28t-19.5 -31.5t-45.5 -13.5q-27 0 -56 13l-11 5q-12 6 -28 6q-19 0 -33 -12q-9 -8 -16 -23t-11 -33q-3 -17 -6 -42t-4 -49l-3 -92h12h7q35 0 63.5 4t41.5 11q-6 -19 -18 -34.5t-28 -23.5q-27 -15 -81 -15
l-2 -39q-2 -29 -2.5 -50t-2.5 -35q-9 -90 -37 -149q-31 -63 -87 -100t-122 -37q-45 0 -69.5 10.5t-24.5 29.5q0 18 20 31.5t46 13.5q12 0 28 -2.5t30 -7.5l10 -4q13 -4 23 -4q24 0 41 23q11 15 17 45q2 10 3 20l2 20q1 18 3 66l3 79l2 59l2 33h-22h-29q-2 0 -4 -0.5t-5 -0.5
z" />
    <glyph glyph-name="guillemotleft" unicode="&#xab;" horiz-adv-x="352" 
d="M342 361l-9 -9q-9 -10 -20.5 -23t-25.5 -30t-24 -31t-18 -25q-12 -17 -17 -28.5t-5 -21.5q0 -18 11 -41t35 -56q19 -26 37.5 -46.5t27.5 -25.5q-11 -2 -17 -2.5t-14 -0.5q-26 0 -44.5 9.5t-37.5 33.5q-58 72 -58 118q0 21 11 41q4 8 9.5 17t14.5 20.5t22 27t33 37.5
l32 36h57zM215 363l-8 -8q-20 -20 -39.5 -41t-36.5 -41q-27 -33 -38.5 -54t-11.5 -38q0 -19 14 -47.5t38 -60.5q29 -39 49 -51q-11 -2 -17 -3t-14 -1q-53 0 -87 50q-18 26 -29.5 54.5t-11.5 46.5q0 36 34 82q19 26 45 55.5t55 56.5h58z" />
    <glyph glyph-name="guillemotright" unicode="&#xbb;" horiz-adv-x="352" 
d="M9 26q7 7 9 10q9 9 20.5 22.5t25.5 30.5t24 30.5t18 24.5q13 17 18 28.5t5 21.5q0 35 -47 97q-20 28 -38 47.5t-27 24.5q11 2 17 2.5t14 0.5q26 0 44.5 -9.5t37.5 -32.5q58 -73 58 -119q0 -20 -10 -40q-5 -8 -10.5 -16.5t-14.5 -20t-22.5 -27.5t-32.5 -39l-31 -36h-58z
M136 24l8 8q22 22 40.5 42t35.5 40q27 33 38.5 54t11.5 38q0 19 -14 47.5t-38 60.5q-31 41 -49 51q11 2 17 3t14 1q53 0 87 -50q18 -26 29.5 -54.5t11.5 -46.5q0 -17 -8.5 -38t-24.5 -43q-20 -26 -46 -56t-54 -57h-59z" />
    <glyph glyph-name="ellipsis" unicode="&#x2026;" horiz-adv-x="639" 
d="M609 75q0 -32 -22.5 -54.5t-54.5 -22.5t-54 22.5t-22 54.5t22 54t54 22t54.5 -22t22.5 -54zM396 75q0 -32 -22.5 -54.5t-54.5 -22.5t-54 22.5t-22 54.5t22 54t54 22t54.5 -22t22.5 -54zM183 75q0 -32 -22.5 -54.5t-54.5 -22.5t-54 22.5t-22 54.5t22 54t54 22t54.5 -22
t22.5 -54z" />
    <glyph glyph-name="Agrave" unicode="&#xc0;" horiz-adv-x="556" 
d="M326 271q-3 9 -5 14t-5 16l-19 66q-8 27 -13 45t-8 33q-2 9 -3.5 17.5t-3.5 27.5l-4 -1q-3 -17 -6 -29.5t-6 -23.5t-7 -23.5t-10 -28.5l-18 -53q-5 -17 -9.5 -28.5t-13.5 -31.5h131zM351 631l-25.5 -3t-19.5 -1q-48 0 -91 26q-35 21 -53.5 33.5t-26.5 20.5q-6 4 -6 12
q0 5 4.5 7t18.5 2h23h45q16 0 26.5 -1t17.5 -4t13.5 -9.5t15.5 -17.5l17 -20q5 -5 11 -12.5t14 -16.5q6 -7 8.5 -9t7.5 -7zM541 -2q-20 2 -35 2.5t-44 0.5q-37 0 -71 -1.5t-69 -3.5l-15 -1l15 45h26h5q20 0 25.5 1.5t5.5 7.5q0 3 -1 9.5t-3 11.5l-40 144h-168l-54 -140
q-4 -11 -6 -16t-2 -8q0 -9 13 -9h13l39 2q8 1 13.5 0.5t15.5 1.5l-15 -47q-8 0 -13 0.5t-12.5 1t-18.5 0.5h-30q-17 0 -32 -0.5t-27 -0.5q-26 0 -38.5 -0.5t-32.5 -2.5l13 39h1q5 0 11 3q6 4 12 15q3 6 10 21t23.5 53.5t46.5 108t79 184.5l76 177h79l54 -167l75 -223
q20 -61 33.5 -99t18.5 -53q3 -9 7 -11q3 -5 9 -6t20 -2z" />
    <glyph glyph-name="Atilde" unicode="&#xc3;" horiz-adv-x="556" 
d="M326 271q-3 9 -5 14t-5 16l-19 66q-8 27 -13 45t-8 33q-2 9 -3.5 17.5t-3.5 27.5l-4 -1q-3 -17 -6 -29.5t-6 -23.5t-7 -23.5t-10 -28.5l-18 -53q-5 -17 -9.5 -28.5t-13.5 -31.5h131zM65 631q12 28 20 41.5t21 26.5q33 33 87 33q15 0 36.5 -2.5t61.5 -8.5l55 -8
q34 -5 48 -7t25 -2q25 0 44 11q9 5 14.5 11.5t12.5 19.5l23 -6q-24 -56 -54.5 -80.5t-75.5 -24.5h-9.5t-12 1t-19.5 3t-33 5l-75 12q-23 4 -41 5.5t-32 1.5q-23 0 -42 -8q-11 -5 -18 -11.5t-15 -21.5zM541 -2q-20 2 -35 2.5t-44 0.5q-37 0 -71 -1.5t-69 -3.5l-15 -1l15 45
h26h5q20 0 25.5 1.5t5.5 7.5q0 3 -1 9.5t-3 11.5l-40 144h-168l-54 -140q-4 -11 -6 -16t-2 -8q0 -9 13 -9h13l39 2q8 1 13.5 0.5t15.5 1.5l-15 -47q-8 0 -13 0.5t-12.5 1t-18.5 0.5h-30q-17 0 -32 -0.5t-27 -0.5q-26 0 -38.5 -0.5t-32.5 -2.5l13 39h1q5 0 11 3q6 4 12 15
q3 6 10 21t23.5 53.5t46.5 108t79 184.5l76 177h79l54 -167l75 -223q20 -61 33.5 -99t18.5 -53q3 -9 7 -11q3 -5 9 -6t20 -2z" />
    <glyph glyph-name="Otilde" unicode="&#xd5;" horiz-adv-x="667" 
d="M511 276q0 50 -14.5 94.5t-40 78t-59 53t-71.5 19.5q-37 0 -68 -16t-53.5 -44t-35.5 -66.5t-13 -84.5q0 -53 14 -98.5t39 -79t58.5 -52.5t72.5 -19q37 0 68 16.5t54 45t36 68t13 85.5zM120 631q12 28 20.5 41.5t21.5 26.5q34 33 86 33q16 0 37.5 -2.5t60.5 -8.5l55 -8
q35 -5 48.5 -7t24.5 -2q26 0 45 11q9 5 14.5 11.5t11.5 19.5l23 -6q-23 -56 -53.5 -80.5t-75.5 -24.5h-9.5t-12 1t-20 3t-33.5 5l-75 12q-23 4 -40.5 5.5t-31.5 1.5q-22 0 -43 -8q-11 -5 -17.5 -11.5t-15.5 -21.5zM645 307q0 -67 -25 -125t-68.5 -100.5t-102.5 -67
t-127 -24.5q-67 0 -122 20.5t-94.5 58t-61 90t-21.5 115.5q0 68 25 126.5t68.5 101t103.5 67t130 24.5q63 0 117 -22t93.5 -60t62 -90.5t22.5 -113.5z" />
    <glyph glyph-name="OE" unicode="&#x152;" horiz-adv-x="870" 
d="M435 485q0 15 -27 25t-65 10q-86 0 -135.5 -60t-49.5 -164q0 -52 14.5 -95t41 -73.5t63 -47.5t81.5 -17q46 0 63 14q11 8 11 33zM857 142q-5 -6 -6 -10q-2 -3 -5.5 -10.5t-8.5 -18.5q-17 -36 -20 -43l-25 -60q-11 -2 -21 -3t-36 -1h-34.5t-28.5 1l-51 3q-23 2 -46.5 2
h-49.5q-38 0 -69 -1.5t-64 -3.5l-20 -1q-18 -1 -29.5 -2t-22.5 -1q-66 0 -120 20t-92 56.5t-59 87.5t-21 113q0 69 24 127.5t67 101.5t102 67t128 24h23.5t38.5 -2l25 -2l17 -1q5 0 19 -0.5t26 -0.5h136h57l77 2q19 1 27.5 3.5t10.5 9.5h6l-1 -12q-2 -21 -3.5 -33t-2.5 -32
q-1 -11 -1.5 -19.5t-0.5 -16.5t-0.5 -16.5t-0.5 -20.5h-36q2 7 2.5 10.5t0.5 8.5q0 14 -5.5 23t-21 14t-43.5 7.5t-73 4.5l-68 2l-2 -183l22 -1q15 -1 32.5 -1h35.5h34t23 1t15.5 2.5t11.5 3.5q9 4 14 12.5t5 19.5v5h34q-1 -8 -2 -13.5t-1.5 -12t-1 -15t-0.5 -21.5
q-2 -37 -3 -60t-1 -33v-17v-3h-36q2 9 2 13.5v10.5q0 19 -8 26q-4 5 -12 8t-16 5q-18 3 -46 5t-53 2h-50l-3 -132v-29q0 -17 1 -21.5t3 -7.5q5 -5 32 -8t80 -3q40 0 63.5 2.5t37.5 7.5q17 8 28 21.5t18 38.5h42z" />
    <glyph glyph-name="oe" unicode="&#x153;" horiz-adv-x="704" 
d="M338 183q0 33 -7.5 61.5t-20 49t-30 32t-37.5 11.5q-41 0 -66.5 -34.5t-25.5 -90.5q0 -69 28 -112t72 -43q38 0 62.5 33.5t24.5 87.5v5zM590 266q0 37 -13.5 57t-36.5 20q-29 0 -53.5 -23.5t-35.5 -59.5q31 2 44 3q11 1 19 1t13 1zM451 227v-14q0 -61 36.5 -99.5
t95.5 -38.5q19 0 42.5 5.5t43.5 14.5q10 5 16 8.5t17 11.5q-9 -28 -17 -43.5t-20 -27.5q-26 -26 -63.5 -40t-80.5 -14q-26 0 -50 6.5t-43 18t-32.5 27.5t-17.5 34h-2q-5 -17 -21 -32.5t-38.5 -27.5t-49 -19t-51.5 -7q-41 0 -76 13.5t-60 37.5t-39 57.5t-14 72.5
q0 48 18.5 90t50.5 72.5t75.5 48t93.5 17.5q54 0 92.5 -21t55.5 -60h2q8 12 13 18t12 14q25 25 57.5 39t65.5 14q65 0 100 -55q6 -10 10.5 -20t7.5 -22.5t5 -29t4 -39.5z" />
    <glyph glyph-name="endash" unicode="&#x2013;" horiz-adv-x="426" 
d="M44 232q2 0 3 0.5t2 0.5q8 2 30 2.5t74 0.5h29q27 0 45.5 -0.5t29.5 -0.5l52 -1q3 -1 8 -1q6 0 12 0.5t14 0.5q28 2 40 2t21 2q8 2 11.5 3.5t6.5 3.5q-7 -26 -30 -45q-7 -5 -14.5 -10t-15.5 -7q-8 -3 -19 -4t-32 -1h-29l-55 1h-95h-10q-49 0 -71.5 -1t-30.5 -4z" />
    <glyph glyph-name="emdash" unicode="&#x2014;" horiz-adv-x="426" 
d="M10 243h427l-22 -61h-426z" />
    <glyph glyph-name="quotedblleft" unicode="&#x201c;" horiz-adv-x="407" 
d="M201 563q-4 -2 -6.5 -3t-4.5 -2q-8 -5 -19.5 -14.5t-19.5 -17.5q-19 -21 -19 -46q0 -4 2 -12q3 -10 9 -17l4 -4t9 -8l8 -9q9 -10 13.5 -18t4.5 -18q0 -14 -11 -31q-14 -21 -36 -33.5t-47 -12.5q-15 0 -28 7t-22.5 18.5t-15.5 27t-6 32.5q0 25 14.5 52.5t40.5 55t63 54
t82 49.5zM404 563l-10 -5q-8 -5 -20 -14.5t-20 -17.5q-18 -20 -18 -46q0 -8 2 -12q2 -10 9 -17l12 -12l8 -9q9 -11 13.5 -18.5t4.5 -17.5q0 -15 -10 -31q-14 -21 -36 -33.5t-47 -12.5q-15 0 -28 7t-22.5 18.5t-15.5 27t-6 32.5q0 25 16.5 54.5t46.5 60.5q27 28 59.5 50.5
t77.5 45.5z" />
    <glyph glyph-name="quotedblright" unicode="&#x201d;" horiz-adv-x="407" 
d="M217 359l6 3l4 2q8 5 20 14.5t20 18.5q9 9 13.5 21t4.5 24q0 8 -1 12q-4 10 -10 17q0 1 -12 13l-8 8q-18 18 -18 36q0 14 11 31q14 21 36 33.5t47 12.5q15 0 27.5 -7t22.5 -18.5t15.5 -27t5.5 -32.5q0 -24 -14.5 -51.5t-40.5 -55.5t-62.5 -54.5t-81.5 -49.5zM13 359
q4 2 6.5 3t4.5 2q8 5 19.5 14.5t19.5 18.5q19 19 19 45q0 4 -2 12q-3 10 -9 17l-13 13l-8 8q-18 18 -18 36q0 14 11 31q14 21 36 33.5t47 12.5q15 0 28 -7t22.5 -18.5t15.5 -27t6 -32.5q0 -24 -14.5 -51.5t-40.5 -55.5t-63 -54.5t-82 -49.5z" />
    <glyph glyph-name="quoteleft" unicode="&#x2018;" horiz-adv-x="213" 
d="M205 563l-10 -5q-8 -5 -20 -14.5t-20 -17.5q-18 -20 -18 -46q0 -8 1 -12q3 -11 10 -17l12 -12l8 -9q9 -11 13.5 -18.5t4.5 -17.5q0 -15 -10 -31q-13 -21 -35.5 -33.5t-47.5 -12.5q-15 0 -28 7t-22.5 18.5t-15.5 27t-6 32.5q0 25 16.5 54.5t46.5 60.5q27 28 59.5 50.5
t77.5 45.5z" />
    <glyph glyph-name="quoteright" unicode="&#x2019;" horiz-adv-x="213" 
d="M18 359l6 3l4 2q8 5 20 14.5t20 18.5q9 9 13.5 21t4.5 24q0 8 -1 12q-4 10 -10 17q0 1 -12 13l-8 8q-18 18 -18 36q0 14 11 31q14 21 36 33.5t47 12.5q15 0 27.5 -7t22.5 -18.5t15.5 -27t5.5 -32.5q0 -24 -14.5 -51.5t-40.5 -55.5t-62.5 -54.5t-81.5 -49.5z" />
    <glyph glyph-name="divide" unicode="&#xf7;" 
 />
    <glyph glyph-name="ydieresis" unicode="&#xff;" horiz-adv-x="407" 
d="M376 506q0 -23 -16.5 -39.5t-39.5 -16.5t-39.5 16.5t-16.5 39.5t16.5 39.5t39.5 16.5t39.5 -16.5t16.5 -39.5zM188 506q0 -23 -16.5 -39.5t-39.5 -16.5t-39 16.5t-16 39.5t16 39.5t39 16.5t39.5 -16.5t16.5 -39.5zM36 393q11 -1 20.5 -1h26.5h44t39 1q19 1 29.5 1.5
t29.5 2.5l-15 -41l-29 -1q-8 0 -10.5 -1t-2.5 -4q0 -1 2 -7l20 -69q4 -15 7.5 -25.5t6 -21t5 -22t5.5 -27.5q3 -14 4.5 -23t2.5 -16t2 -13.5t2 -15.5l3 1q2 9 3 14.5t5 19.5q5 14 7.5 23t4.5 15q3 10 21 60q7 18 9 23l24 55q8 18 8 25t-12 7q-10 0 -20.5 -1t-20.5 -3l15 43
q14 -2 21.5 -2h21.5h21h28.5t21 1t19 1.5t22.5 2.5l-15 -40h-7q-9 0 -13 -2.5t-9 -12.5l-151 -322l-38 -78q-16 -33 -25.5 -48t-21.5 -26q-17 -16 -43 -25t-51 -9q-29 0 -46 9t-17 25q0 21 20.5 37t48.5 16q2 0 6 -0.5t9 -0.5l8 -1q5 -1 15 -1q15 0 25 8q6 4 10.5 12
t12.5 28l20 46q-15 41 -25.5 71.5t-18.5 50.5q-18 50 -29 80t-15 41l-32 91q-4 14 -14 14q-3 0 -8 -1z" />
    <glyph glyph-name="Ydieresis" unicode="&#x178;" horiz-adv-x="537" 
d="M236 683q0 -23 -16 -39.5t-39 -16.5t-39 16.5t-16 39.5t16 39t39 16t39 -16t16 -39zM439 683q0 -23 -16 -39.5t-39 -16.5t-39.5 16.5t-16.5 39.5t16.5 39t39.5 16t39 -16t16 -39zM410 -1h-4h-15l-38 1q-14 0 -28.5 1t-31.5 1q-51 0 -91.5 -2t-85.5 -7l13 43h11q17 0 27 2
t17 8q8 8 11 20q2 9 3 21.5t2 45.5l3 138l-163 258q-7 13 -24 13q-2 0 -5 -0.5l-9 -1.5l14 38q3 0 5 0.5t4 0.5q4 1 7.5 1t8.5 1q2 0 8 0.5t17 0.5l78 2l48 2q18 1 30.5 1.5t34.5 2.5l-11 -44q-52 0 -59 -3q-3 -2 -3 -5t3 -10l25 -39l17 -30l37 -66q8 -14 12 -25t11 -33l3 1
q7 14 11 21.5t12 20.5q8 12 19.5 29t21.5 31l72 97q1 2 1 4q0 4 -8 4h-8.5t-12 -1t-19.5 -2t-30 -2l14 46h34h54t39 1t31 1.5t30 2.5l-13 -38q-12 -3 -21 -13l-190 -254l-5 -229v-1q0 -8 3 -11q3 -2 9.5 -2h26.5h29.5t33.5 2z" />
    <glyph glyph-name="fraction" unicode="&#x2044;" horiz-adv-x="111" 
d="M327 621q-8 -9 -11.5 -14t-11.5 -16q-24 -34 -50.5 -71t-53 -75.5t-52 -76t-48.5 -72.5l-107 -163l-77 -124l-22 -41q-8 -15 -11.5 -24t-3.5 -17q0 -4 1 -6q-17 -5 -24.5 -7t-14.5 -2q-19 0 -19 14q0 2 0.5 3.5t0.5 3.5q6 18 50 93q13 21 34 53.5t50 77.5
q38 60 64.5 100.5t42.5 63.5q6 9 41 59t98 141l58 83l10 14z" />
    <glyph glyph-name="fraction" unicode="&#x2215;" horiz-adv-x="111" 
d="M327 621q-8 -9 -11.5 -14t-11.5 -16q-24 -34 -50.5 -71t-53 -75.5t-52 -76t-48.5 -72.5l-107 -163l-77 -124l-22 -41q-8 -15 -11.5 -24t-3.5 -17q0 -4 1 -6q-17 -5 -24.5 -7t-14.5 -2q-19 0 -19 14q0 2 0.5 3.5t0.5 3.5q6 18 50 93q13 21 34 53.5t50 77.5
q38 60 64.5 100.5t42.5 63.5q6 9 41 59t98 141l58 83l10 14z" />
    <glyph glyph-name="currency" unicode="&#xa4;" 
 />
    <glyph glyph-name="guilsinglleft" unicode="&#x2039;" horiz-adv-x="241" 
d="M215 363l-8 -8q-20 -20 -39.5 -41t-36.5 -41q-27 -33 -38.5 -54t-11.5 -38q0 -19 14 -47.5t38 -60.5q31 -41 49 -51l-16.5 -3t-13.5 -1q-54 0 -88 50q-18 26 -29.5 54.5t-11.5 46.5q0 36 34 82q20 26 46 55.5t54 56.5h58z" />
    <glyph glyph-name="guilsinglright" unicode="&#x203a;" horiz-adv-x="241" 
d="M17 24l8 8q22 22 40.5 42t35.5 40q27 33 38.5 54t11.5 38q0 19 -14 47.5t-38 60.5q-31 41 -49 51l16.5 3t13.5 1q54 0 88 -50q18 -26 29.5 -54.5t11.5 -46.5q0 -36 -34 -81q-19 -26 -45.5 -56t-54.5 -57h-58z" />
    <glyph glyph-name="daggerdbl" unicode="&#x2021;" horiz-adv-x="444" 
d="M299 623q-8 -11 -13 -24.5t-10 -37.5q-3 -13 -4.5 -25t-3.5 -23q-1 -6 -2.5 -21.5t-3.5 -39.5q-1 -11 -1 -17.5v-10.5l-1 -28l51 1q25 1 40.5 1.5t35.5 2.5q16 2 24 4t19 7q-16 -41 -47 -60q-11 -7 -29 -10q-7 -1 -13 -1.5t-14.5 -1t-20.5 -0.5h-31h-16l-5 -210l42 1
q51 2 80.5 4t45.5 9q-6 -14 -13 -24t-18 -21q-9 -9 -16.5 -14t-18.5 -8t-27 -4t-41 -1h-34l-1 -86v-20.5t1 -25.5q2 -31 4 -46t6 -26q3 -10 9 -14q-29 -12 -60 -12q-17 0 -24 7.5t-7 26.5v21l7 177h-77h-40t-29 -2q-8 -1 -11.5 -1.5t-9.5 -2.5l30 60q8 2 7 2q6 2 17.5 2
h26.5h12h27l32 -1h17l3 210l-65 2h-12q-8 0 -16.5 -0.5t-19.5 -0.5q-18 -1 -26.5 -1t-24.5 -2l29 59q9 1 14.5 1.5t10.5 0.5h20l38 -1h35h20l2 85v9q0 6 -0.5 13.5t-0.5 15.5q-2 26 -3 38.5t-4 23.5q-5 14 -17 20z" />
    <glyph glyph-name="periodcentered" unicode="&#xb7;" horiz-adv-x="426" 
d="M409 391l-8 -9l-70 -78l-90 -101q8 -9 13 -16q11 -14 25 -30.5t28.5 -33.5t28.5 -32.5t24 -25.5q21 -23 36 -36t27 -20q3 -2 5.5 -3l7.5 -3q-18 -16 -45 -16q-23 0 -43 11.5t-46 38.5q-13 13 -27 29t-27.5 32t-25.5 31t-21 27q-6 -7 -11 -11.5t-8 -8.5q-50 -56 -83 -106
q-11 -17 -11 -27q0 -2 1 -3q-22 -5 -33 -7t-19 -2q-19 0 -19 13q0 4 2 10.5t6 11.5q12 19 33 45q28 34 48.5 57t42.5 48l18 20q-7 8 -11.5 13.5t-10 12.5t-12.5 16.5t-18 24.5l-38 52l-32 46l-17 25l75 5l6 -10.5t7 -10.5q9 -14 20 -30t24 -34q9 -14 15 -22.5t11.5 -15
t10.5 -12.5t12 -14l123 143z" />
    <glyph glyph-name="periodcentered" unicode="&#x2219;" horiz-adv-x="426" 
d="M409 391l-8 -9l-70 -78l-90 -101q8 -9 13 -16q11 -14 25 -30.5t28.5 -33.5t28.5 -32.5t24 -25.5q21 -23 36 -36t27 -20q3 -2 5.5 -3l7.5 -3q-18 -16 -45 -16q-23 0 -43 11.5t-46 38.5q-13 13 -27 29t-27.5 32t-25.5 31t-21 27q-6 -7 -11 -11.5t-8 -8.5q-50 -56 -83 -106
q-11 -17 -11 -27q0 -2 1 -3q-22 -5 -33 -7t-19 -2q-19 0 -19 13q0 4 2 10.5t6 11.5q12 19 33 45q28 34 48.5 57t42.5 48l18 20q-7 8 -11.5 13.5t-10 12.5t-12.5 16.5t-18 24.5l-38 52l-32 46l-17 25l75 5l6 -10.5t7 -10.5q9 -14 20 -30t24 -34q9 -14 15 -22.5t11.5 -15
t10.5 -12.5t12 -14l123 143z" />
    <glyph glyph-name="quotesinglbase" unicode="&#x201a;" 
 />
    <glyph glyph-name="quotedblbase" unicode="&#x201e;" horiz-adv-x="407" 
d="M211 -111l6 3l4 2q8 5 20 14.5t20 17.5q19 19 19 45q0 5 -2 13q-4 10 -10 17q0 1 -12 12l-8 9q-9 11 -13.5 18.5t-4.5 17.5q0 14 11 31q14 21 36 33.5t47 12.5q15 0 27.5 -7t22.5 -18.5t15.5 -27t5.5 -32.5q0 -25 -14.5 -52.5t-40.5 -55t-62.5 -54t-81.5 -49.5zM8 -111
l10 5q8 5 19.5 14.5t19.5 17.5q19 19 19 45q0 5 -2 13q-1 5 -3.5 9t-5.5 8l-12 12l-9 9q-18 18 -18 36q0 14 11 31q14 21 36 33.5t47 12.5q15 0 28 -7t22.5 -18.5t15.5 -27t6 -32.5q0 -25 -14.5 -52.5t-40.5 -55t-63 -54t-82 -49.5z" />
    <glyph glyph-name="perthousand" unicode="&#x2030;" horiz-adv-x="815" 
d="M724 112q0 36 -16.5 61t-40.5 25t-39 -20t-15 -51q0 -37 16.5 -62t41.5 -25q23 0 38 20.5t15 51.5zM447 112q0 36 -16.5 61t-40.5 25t-39 -20t-15 -51q0 -37 16.5 -62t41.5 -25q23 0 38 20.5t15 51.5zM211 420q0 35 -17.5 59.5t-40.5 24.5t-39 -20.5t-16 -51.5
q0 -38 17.5 -64t43.5 -26q23 0 37.5 21.5t14.5 53.5v3zM799 133q0 -30 -11.5 -56.5t-31 -46t-46 -31t-56.5 -11.5q-52 0 -84 32t-32 84q0 29 11.5 55t31.5 46t46 32t55 12q25 0 46 -9t37 -24.5t25 -36.5t9 -46zM522 133q0 -30 -11.5 -56.5t-31 -46t-46 -31t-56.5 -11.5
q-52 0 -84 32t-32 84q0 29 11.5 55t31.5 46t46 32t55 12q25 0 46 -9t37 -24.5t25 -36.5t9 -46zM547 598l-3 -4l-7 -9q-12 -15 -21.5 -26t-15.5 -19q-31 -39 -88.5 -117t-135.5 -187q-45 -63 -74.5 -105t-48.5 -70.5t-30.5 -47.5t-19.5 -35q-6 -11 -6 -19q0 -4 2 -6
l-25.5 -7.5t-15.5 -2.5q-18 0 -18 14q0 8 5 16q5 10 10.5 19.5t11.5 19.5q11 18 29 45t40.5 59t48 68t52.5 73l127 173q14 19 24 32.5t18.5 23t17.5 18t21 17.5l8 6l-2 2q-25 -16 -53.5 -23t-66.5 -7q-14 0 -24.5 0.5t-20 3t-18.5 6t-20 9.5l-1 -2q9 -7 13 -10.5t8 -8.5
q8 -11 13 -28.5t5 -34.5q0 -29 -12 -55.5t-32 -46.5t-46.5 -32t-55.5 -12q-25 0 -46 9t-36.5 25t-24 37.5t-8.5 47.5q0 30 11.5 56.5t31 46.5t45.5 31.5t56 11.5q11 0 18.5 -1t21.5 -5q19 -1 39.5 -1h49.5q37 0 62.5 1t53.5 4q18 2 29.5 5t25.5 9q16 8 24 17q3 3 12 16h42z
" />
    <glyph glyph-name="Acircumflex" unicode="&#xc2;" horiz-adv-x="556" 
d="M326 271q-3 9 -5 14t-5 16l-19 66q-8 27 -13 45t-8 33q-2 9 -3.5 17.5t-3.5 27.5l-4 -1q-3 -17 -6 -29.5t-6 -23.5t-7 -23.5t-10 -28.5l-18 -53q-5 -17 -9.5 -28.5t-13.5 -31.5h131zM376 728q13 -19 23 -32t24 -29q13 -14 21.5 -21t19.5 -15q-12 -2 -19 -3t-20 -1
q-23 0 -38.5 4t-34.5 14q-13 7 -23.5 14.5t-22.5 19.5q-9 -8 -24 -18t-29 -17q-35 -16 -83 -16h-18t-18 2q16 11 25.5 18.5t24.5 21.5q18 16 29 27.5t27 30.5h136zM541 -2q-20 2 -35 2.5t-44 0.5q-37 0 -71 -1.5t-69 -3.5l-15 -1l15 45h26h5q20 0 25.5 1.5t5.5 7.5
q0 3 -1 9.5t-3 11.5l-40 144h-168l-54 -140q-4 -11 -6 -16t-2 -8q0 -9 13 -9h13l39 2q8 1 13.5 0.5t15.5 1.5l-15 -47q-8 0 -13 0.5t-12.5 1t-18.5 0.5h-30q-17 0 -32 -0.5t-27 -0.5q-26 0 -38.5 -0.5t-32.5 -2.5l13 39h1q5 0 11 3q6 4 12 15q3 6 10 21t23.5 53.5t46.5 108
t79 184.5l76 177h79l54 -167l75 -223q20 -61 33.5 -99t18.5 -53q3 -9 7 -11q3 -5 9 -6t20 -2z" />
    <glyph glyph-name="Ecircumflex" unicode="&#xca;" horiz-adv-x="537" 
d="M367 728q13 -19 23 -32t24 -29q13 -14 21.5 -21t19.5 -15q-12 -2 -19 -3t-21 -1q-22 0 -38 4t-34 14q-13 7 -23.5 14.5t-22.5 19.5q-10 -8 -24.5 -18t-28.5 -17q-35 -16 -83 -16h-18t-19 2q17 11 26.5 18.5t24.5 21.5q18 16 29 27.5t27 30.5h136zM523 143q-3 -8 -6 -12
q-5 -9 -13 -27.5t-20 -44.5l-27 -60q-16 -3 -32 -4.5t-37 -1.5q-11 0 -40.5 1t-68.5 2l-86 2q-7 1 -16 1h-20h-19h-39.5t-27.5 -1t-23.5 -2t-27.5 -2l13 40q21 1 29 2t14 6q20 11 21 58l7 412l-1 21q0 5 -2.5 6.5t-11.5 1.5h-33q-35 0 -54 -7l16 39q9 2 14.5 3t16.5 2
q20 2 44 3t59 1l223 2q31 0 53.5 2t33.5 5q6 2 9 8h6q-2 -11 -3 -18.5t-2 -21.5q-2 -26 -3 -52.5t-1 -41.5v-19h-37q2 8 2 12v9q0 25 -10 32q-11 8 -39 11q-20 2 -53.5 3.5t-64.5 1.5h-41l-2 -186l38 1q20 1 38 1t34 1q32 2 45 2.5t19 2.5q17 7 17 33q0 3 -1 6h35
q-2 -14 -2.5 -21t-1.5 -17q-1 -23 -3 -65q0 -16 -0.5 -28.5t-0.5 -21.5v-9.5t1 -13.5h-37q2 9 2.5 14t0.5 13q0 11 -2 16.5t-7 9.5q-17 16 -121 16h-10l-46 -1l-2 -180v-1q0 -9 7 -12q3 -2 14 -4q17 -2 44.5 -2.5t51.5 -0.5q82 0 106 14q14 8 22 21.5t16 39.5h43z" />
    <glyph glyph-name="Aacute" unicode="&#xc1;" horiz-adv-x="556" 
d="M326 271q-3 9 -5 14t-5 16l-19 66q-8 27 -13 45t-8 33q-2 9 -3.5 17.5t-3.5 27.5l-4 -1q-3 -17 -6 -29.5t-6 -23.5t-7 -23.5t-10 -28.5l-18 -53q-5 -17 -9.5 -28.5t-13.5 -31.5h131zM215 628q9 5 14 10q8 6 22.5 17.5t28.5 25.5l17 16l14 13q7 8 16 12q15 5 82 5h39
q17 0 22 -1t5 -6q0 -7 -23 -20q-25 -14 -54.5 -29t-51.5 -23q-29 -12 -52.5 -17t-47.5 -5h-14.5t-16.5 2zM541 -2q-20 2 -35 2.5t-44 0.5q-37 0 -71 -1.5t-69 -3.5l-15 -1l15 45h26h5q20 0 25.5 1.5t5.5 7.5q0 3 -1 9.5t-3 11.5l-40 144h-168l-54 -140q-4 -11 -6 -16t-2 -8
q0 -9 13 -9h13l39 2q8 1 13.5 0.5t15.5 1.5l-15 -47q-8 0 -13 0.5t-12.5 1t-18.5 0.5h-30q-17 0 -32 -0.5t-27 -0.5q-26 0 -38.5 -0.5t-32.5 -2.5l13 39h1q5 0 11 3q6 4 12 15q3 6 10 21t23.5 53.5t46.5 108t79 184.5l76 177h79l54 -167l75 -223q20 -61 33.5 -99t18.5 -53
q3 -9 7 -11q3 -5 9 -6t20 -2z" />
    <glyph glyph-name="Edieresis" unicode="&#xcb;" horiz-adv-x="537" 
d="M236 683q0 -23 -16 -39.5t-39 -16.5t-39 16.5t-16 39.5t16 39t39 16t39 -16t16 -39zM439 683q0 -23 -16 -39.5t-39 -16.5t-39.5 16.5t-16.5 39.5t16.5 39t39.5 16t39 -16t16 -39zM523 143q-3 -8 -6 -12q-5 -9 -13 -27.5t-20 -44.5l-27 -60q-16 -3 -32 -4.5t-37 -1.5
q-11 0 -40.5 1t-68.5 2l-86 2q-7 1 -16 1h-20h-19h-39.5t-27.5 -1t-23.5 -2t-27.5 -2l13 40q21 1 29 2t14 6q20 11 21 58l7 412l-1 21q0 5 -2.5 6.5t-11.5 1.5h-33q-35 0 -54 -7l16 39q9 2 14.5 3t16.5 2q20 2 44 3t59 1l223 2q31 0 53.5 2t33.5 5q6 2 9 8h6
q-2 -11 -3 -18.5t-2 -21.5q-2 -26 -3 -52.5t-1 -41.5v-19h-37q2 8 2 12v9q0 25 -10 32q-11 8 -39 11q-20 2 -53.5 3.5t-64.5 1.5h-41l-2 -186l38 1q20 1 38 1t34 1q32 2 45 2.5t19 2.5q17 7 17 33q0 3 -1 6h35q-2 -14 -2.5 -21t-1.5 -17q-1 -23 -3 -65q0 -16 -0.5 -28.5
t-0.5 -21.5v-9.5t1 -13.5h-37q2 9 2.5 14t0.5 13q0 11 -2 16.5t-7 9.5q-17 16 -121 16h-10l-46 -1l-2 -180v-1q0 -9 7 -12q3 -2 14 -4q17 -2 44.5 -2.5t51.5 -0.5q82 0 106 14q14 8 22 21.5t16 39.5h43z" />
    <glyph glyph-name="Egrave" unicode="&#xc8;" horiz-adv-x="537" 
d="M341 631q-17 -2 -25 -3t-19 -1q-48 0 -91 26q-35 21 -53.5 33.5t-26.5 20.5q-6 4 -6 12q0 5 4 7t18 2h24h45q16 0 26 -1t17.5 -4t14 -9.5t15.5 -17.5l17 -20q5 -5 11 -12.5t14 -16.5q5 -7 7.5 -9t7.5 -7zM523 143q-3 -8 -6 -12q-5 -9 -13 -27.5t-20 -44.5l-27 -60
q-16 -3 -32 -4.5t-37 -1.5q-11 0 -40.5 1t-68.5 2l-86 2q-7 1 -16 1h-20h-19h-39.5t-27.5 -1t-23.5 -2t-27.5 -2l13 40q21 1 29 2t14 6q20 11 21 58l7 412l-1 21q0 5 -2.5 6.5t-11.5 1.5h-33q-35 0 -54 -7l16 39q9 2 14.5 3t16.5 2q20 2 44 3t59 1l223 2q31 0 53.5 2t33.5 5
q6 2 9 8h6q-2 -11 -3 -18.5t-2 -21.5q-2 -26 -3 -52.5t-1 -41.5v-19h-37q2 8 2 12v9q0 25 -10 32q-11 8 -39 11q-20 2 -53.5 3.5t-64.5 1.5h-41l-2 -186l38 1q20 1 38 1t34 1q32 2 45 2.5t19 2.5q17 7 17 33q0 3 -1 6h35q-2 -14 -2.5 -21t-1.5 -17q-1 -23 -3 -65
q0 -16 -0.5 -28.5t-0.5 -21.5v-9.5t1 -13.5h-37q2 9 2.5 14t0.5 13q0 11 -2 16.5t-7 9.5q-17 16 -121 16h-10l-46 -1l-2 -180v-1q0 -9 7 -12q3 -2 14 -4q17 -2 44.5 -2.5t51.5 -0.5q82 0 106 14q14 8 22 21.5t16 39.5h43z" />
    <glyph glyph-name="Iacute" unicode="&#xcd;" horiz-adv-x="315" 
d="M95 628q5 3 7.5 5t6.5 5q8 5 21.5 17.5t28.5 25.5l18 16l13 13q9 9 17 12q15 5 82 5h38q17 0 22.5 -1t5.5 -6q0 -6 -23 -20q-26 -14 -55.5 -28.5t-51.5 -23.5q-29 -11 -52 -16.5t-47 -5.5h-15t-16 2zM284 -1h-4l-18 1l-37 1q-12 0 -26 0.5t-29 0.5q-20 0 -39.5 -0.5
t-39.5 -1.5q-12 0 -21.5 -0.5t-17.5 -1t-16.5 -1.5t-20.5 -2l12 41h5q32 0 44.5 12t13.5 42l1 45l8 393q0 8 -3.5 10t-15.5 2q-11 0 -20 -0.5t-32 -2.5l-10 -1l13 42q5 1 8 1t5 1q4 0 12 0.5t22 0.5l49 1h40q6 0 17.5 0.5t28.5 0.5q16 0 27 0.5t20.5 1.5t19.5 2t24 3
l-14 -43h-14q-17 0 -23.5 -1t-12.5 -5q-10 -7 -13 -22.5t-4 -54.5l-8 -406v-5q0 -9 2.5 -11t15.5 -2q16 0 32.5 1.5t35.5 3.5z" />
    <glyph glyph-name="Icircumflex" unicode="&#xce;" horiz-adv-x="315" 
d="M256 728q12 -19 22.5 -32t24.5 -29q13 -14 21.5 -21t19.5 -15q-12 -2 -19 -3t-21 -1q-22 0 -38 4t-34 14q-14 7 -24 14.5t-22 19.5q-10 -8 -25 -18.5t-28 -16.5q-18 -9 -38.5 -12.5t-45.5 -3.5h-18t-18 2q17 11 26.5 18.5t24.5 21.5q18 16 29 27.5t27 30.5h136zM284 -1
h-4l-18 1l-37 1q-12 0 -26 0.5t-29 0.5q-20 0 -39.5 -0.5t-39.5 -1.5q-12 0 -21.5 -0.5t-17.5 -1t-16.5 -1.5t-20.5 -2l12 41h5q32 0 44.5 12t13.5 42l1 45l8 393q0 8 -3.5 10t-15.5 2q-11 0 -20 -0.5t-32 -2.5l-10 -1l13 42q5 1 8 1t5 1q4 0 12 0.5t22 0.5l49 1h40
q6 0 17.5 0.5t28.5 0.5q16 0 27 0.5t20.5 1.5t19.5 2t24 3l-14 -43h-14q-17 0 -23.5 -1t-12.5 -5q-10 -7 -13 -22.5t-4 -54.5l-8 -406v-5q0 -9 2.5 -11t15.5 -2q16 0 32.5 1.5t35.5 3.5z" />
    <glyph glyph-name="Idieresis" unicode="&#xcf;" horiz-adv-x="315" 
d="M125 683q0 -23 -16 -39.5t-39 -16.5t-39 16.5t-16 39.5t16 39t39 16t39 -16t16 -39zM328 683q0 -23 -16.5 -39.5t-39.5 -16.5t-39 16.5t-16 39.5t16 39t39 16t39.5 -16t16.5 -39zM284 -1h-4l-18 1l-37 1q-12 0 -26 0.5t-29 0.5q-20 0 -39.5 -0.5t-39.5 -1.5
q-12 0 -21.5 -0.5t-17.5 -1t-16.5 -1.5t-20.5 -2l12 41h5q32 0 44.5 12t13.5 42l1 45l8 393q0 8 -3.5 10t-15.5 2q-11 0 -20 -0.5t-32 -2.5l-10 -1l13 42q5 1 8 1t5 1q4 0 12 0.5t22 0.5l49 1h40q6 0 17.5 0.5t28.5 0.5q16 0 27 0.5t20.5 1.5t19.5 2t24 3l-14 -43h-14
q-17 0 -23.5 -1t-12.5 -5q-10 -7 -13 -22.5t-4 -54.5l-8 -406v-5q0 -9 2.5 -11t15.5 -2q16 0 32.5 1.5t35.5 3.5z" />
    <glyph glyph-name="Igrave" unicode="&#xcc;" horiz-adv-x="315" 
d="M230 631q-17 -2 -25 -3t-19 -1q-48 0 -91 26q-35 21 -54 33.5t-27 20.5q-5 5 -5 12q0 5 4 7t18 2h24h45q16 0 26 -1t17.5 -4t14 -9.5t15.5 -17.5l16 -20q5 -5 11.5 -12.5t14.5 -16.5q5 -7 7.5 -9t7.5 -7zM284 -1h-4l-18 1l-37 1q-12 0 -26 0.5t-29 0.5q-20 0 -39.5 -0.5
t-39.5 -1.5q-12 0 -21.5 -0.5t-17.5 -1t-16.5 -1.5t-20.5 -2l12 41h5q32 0 44.5 12t13.5 42l1 45l8 393q0 8 -3.5 10t-15.5 2q-11 0 -20 -0.5t-32 -2.5l-10 -1l13 42q5 1 8 1t5 1q4 0 12 0.5t22 0.5l49 1h40q6 0 17.5 0.5t28.5 0.5q16 0 27 0.5t20.5 1.5t19.5 2t24 3
l-14 -43h-14q-17 0 -23.5 -1t-12.5 -5q-10 -7 -13 -22.5t-4 -54.5l-8 -406v-5q0 -9 2.5 -11t15.5 -2q16 0 32.5 1.5t35.5 3.5z" />
    <glyph glyph-name="Oacute" unicode="&#xd3;" horiz-adv-x="667" 
d="M511 276q0 50 -14.5 94.5t-40 78t-59 53t-71.5 19.5q-37 0 -68 -16t-53.5 -44t-35.5 -66.5t-13 -84.5q0 -53 14 -98.5t39 -79t58.5 -52.5t72.5 -19q37 0 68 16.5t54 45t36 68t13 85.5zM270 628q9 5 15 10q8 5 22 17t28 26l17 16l14 13q9 9 17 12q15 5 82 5h38
q17 0 22.5 -1t5.5 -6q0 -6 -23 -20q-26 -14 -55.5 -28.5t-51.5 -23.5q-29 -11 -52 -16.5t-47 -5.5h-15t-17 2zM645 307q0 -67 -25 -125t-68.5 -100.5t-102.5 -67t-127 -24.5q-67 0 -122 20.5t-94.5 58t-61 90t-21.5 115.5q0 68 25 126.5t68.5 101t103.5 67t130 24.5
q63 0 117 -22t93.5 -60t62 -90.5t22.5 -113.5z" />
    <glyph glyph-name="Ocircumflex" unicode="&#xd4;" horiz-adv-x="667" 
d="M511 276q0 50 -14.5 94.5t-40 78t-59 53t-71.5 19.5q-37 0 -68 -16t-53.5 -44t-35.5 -66.5t-13 -84.5q0 -53 14 -98.5t39 -79t58.5 -52.5t72.5 -19q37 0 68 16.5t54 45t36 68t13 85.5zM432 728q12 -19 22.5 -32t24.5 -29q12 -14 21 -21t20 -15q-12 -2 -19 -3t-21 -1
q-22 0 -38 4t-35 14q-13 7 -23 14.5t-22 19.5q-10 -8 -25 -18.5t-28 -16.5q-18 -9 -38.5 -12.5t-45.5 -3.5h-18t-18 2q17 11 26 18.5t25 21.5q18 16 29 27.5t27 30.5h136zM645 307q0 -67 -25 -125t-68.5 -100.5t-102.5 -67t-127 -24.5q-67 0 -122 20.5t-94.5 58t-61 90
t-21.5 115.5q0 68 25 126.5t68.5 101t103.5 67t130 24.5q63 0 117 -22t93.5 -60t62 -90.5t22.5 -113.5z" />
    <glyph glyph-name="Ograve" unicode="&#xd2;" horiz-adv-x="667" 
d="M511 276q0 50 -14.5 94.5t-40 78t-59 53t-71.5 19.5q-37 0 -68 -16t-53.5 -44t-35.5 -66.5t-13 -84.5q0 -53 14 -98.5t39 -79t58.5 -52.5t72.5 -19q37 0 68 16.5t54 45t36 68t13 85.5zM406 631l-25.5 -3t-19.5 -1q-47 0 -90 26q-35 21 -54 33.5t-27 20.5q-6 6 -6 12
q0 5 4.5 7t18.5 2h24h45q16 0 26 -1t17 -4.5t13.5 -10t15.5 -16.5l17 -20q5 -6 11.5 -13t14.5 -16q5 -7 7.5 -9t7.5 -7zM645 307q0 -67 -25 -125t-68.5 -100.5t-102.5 -67t-127 -24.5q-67 0 -122 20.5t-94.5 58t-61 90t-21.5 115.5q0 68 25 126.5t68.5 101t103.5 67
t130 24.5q63 0 117 -22t93.5 -60t62 -90.5t22.5 -113.5z" />
    <glyph glyph-name="Uacute" unicode="&#xda;" horiz-adv-x="685" 
d="M280 628q5 3 7.5 5t6.5 5q8 6 21.5 18t28.5 25l18 16l13 13q9 9 17 12q15 5 82 5h38q18 0 23 -1t5 -6q0 -6 -23 -20q-26 -14 -55.5 -29t-50.5 -23q-29 -12 -52.5 -17t-47.5 -5h-14.5t-16.5 2zM679 546h-18q-17 0 -25.5 -4.5t-13.5 -16.5q-6 -15 -7 -45q-2 -29 -3 -123
q0 -24 -0.5 -38t-0.5 -19l1 -64q0 -12 -0.5 -21.5t-0.5 -15.5q-3 -56 -21 -93q-14 -28 -39 -52t-57 -38q-61 -29 -167 -29q-172 0 -225 88q-11 18 -15.5 41t-4.5 59v8l7 337v7q0 14 -15 14h-12q-22 0 -31.5 -1.5t-24.5 -3.5l17 43q9 2 14 2t14 1q13 1 30.5 1h29.5h43h37
t31.5 1l31 2t35.5 3l-12 -42h-15q-28 0 -38.5 -12.5t-11.5 -47.5l-4 -173v-23v-56.5t1 -38.5q2 -39 13 -65q15 -36 51.5 -56t87.5 -20q46 0 79 16.5t47 47.5q5 11 8 25.5t5 36.5t3 45.5t2 46.5l6 225v9q0 20 -5.5 27.5t-21.5 7.5h-11t-13 -1q-16 -1 -21.5 -1t-15.5 -2l12 43
h14l36 1l66 1h33.5t29.5 1q13 0 23 0.5t18 1t17 1t21 2.5z" />
    <glyph glyph-name="Ucircumflex" unicode="&#xdb;" horiz-adv-x="685" 
d="M441 728q13 -19 23 -32t24 -29q13 -14 21.5 -21t19.5 -15q-12 -2 -19 -3t-21 -1q-22 0 -37.5 4t-34.5 14q-13 7 -23.5 14.5t-22.5 19.5q-9 -8 -24 -18t-29 -17q-35 -16 -83 -16h-18t-19 2q17 11 26.5 18.5t24.5 21.5q18 16 29 27.5t27 30.5h136zM679 546h-18
q-17 0 -25.5 -4.5t-13.5 -16.5q-6 -15 -7 -45q-2 -29 -3 -123q0 -24 -0.5 -38t-0.5 -19l1 -64q0 -12 -0.5 -21.5t-0.5 -15.5q-3 -56 -21 -93q-14 -28 -39 -52t-57 -38q-61 -29 -167 -29q-172 0 -225 88q-11 18 -15.5 41t-4.5 59v8l7 337v7q0 14 -15 14h-12q-22 0 -31.5 -1.5
t-24.5 -3.5l17 43q9 2 14 2t14 1q13 1 30.5 1h29.5h43h37t31.5 1l31 2t35.5 3l-12 -42h-15q-28 0 -38.5 -12.5t-11.5 -47.5l-4 -173v-23v-56.5t1 -38.5q2 -39 13 -65q15 -36 51.5 -56t87.5 -20q46 0 79 16.5t47 47.5q5 11 8 25.5t5 36.5t3 45.5t2 46.5l6 225v9
q0 20 -5.5 27.5t-21.5 7.5h-11t-13 -1q-16 -1 -21.5 -1t-15.5 -2l12 43h14l36 1l66 1h33.5t29.5 1q13 0 23 0.5t18 1t17 1t21 2.5z" />
    <glyph glyph-name="Ugrave" unicode="&#xd9;" horiz-adv-x="685" 
d="M415 631q-17 -2 -25 -3t-19 -1q-48 0 -91 26q-35 21 -53.5 33.5t-26.5 20.5q-6 4 -6 12q0 5 4 7t18 2h24h45q16 0 26 -1t17.5 -4t14 -9.5t15.5 -17.5l17 -20q5 -5 11 -12.5t14 -16.5q5 -7 7.5 -9t7.5 -7zM679 546h-18q-17 0 -25.5 -4.5t-13.5 -16.5q-6 -15 -7 -45
q-2 -29 -3 -123q0 -24 -0.5 -38t-0.5 -19l1 -64q0 -12 -0.5 -21.5t-0.5 -15.5q-3 -56 -21 -93q-14 -28 -39 -52t-57 -38q-61 -29 -167 -29q-172 0 -225 88q-11 18 -15.5 41t-4.5 59v8l7 337v7q0 14 -15 14h-12q-22 0 -31.5 -1.5t-24.5 -3.5l17 43q9 2 14 2t14 1q13 1 30.5 1
h29.5h43h37t31.5 1l31 2t35.5 3l-12 -42h-15q-28 0 -38.5 -12.5t-11.5 -47.5l-4 -173v-23v-56.5t1 -38.5q2 -39 13 -65q15 -36 51.5 -56t87.5 -20q46 0 79 16.5t47 47.5q5 11 8 25.5t5 36.5t3 45.5t2 46.5l6 225v9q0 20 -5.5 27.5t-21.5 7.5h-11t-13 -1q-16 -1 -21.5 -1
t-15.5 -2l12 43h14l36 1l66 1h33.5t29.5 1q13 0 23 0.5t18 1t17 1t21 2.5z" />
    <glyph glyph-name="dotlessi" unicode="&#x131;" horiz-adv-x="278" 
d="M273 -1l-24 1q-19 1 -34.5 1.5t-27.5 0.5l-84 -2q-17 0 -27 -0.5t-17.5 -1t-14.5 -1.5t-17 -2l13 42h6q21 0 28.5 11.5t8.5 46.5l3 201v3q0 26 -4.5 36t-17.5 10h-6.5t-9.5 -1q-6 -1 -10 -1.5t-6 -0.5q-2 -1 -4 -1t-4 -1l12 38q7 1 12 1.5t10.5 1.5t13 2.5t19.5 4.5
l52 11q27 6 47.5 11.5t31.5 10.5q-5 -10 -6.5 -15.5t-3.5 -16.5t-3.5 -22.5t-2.5 -27.5t-2 -38t-1 -53l-3 -199q0 -9 20 -9h20l35 2l10 1z" />
    <glyph glyph-name="circumflex" unicode="&#x2c6;" horiz-adv-x="0" 
d="M74 612q4 -14 9 -27t18 -41q7 -14 12 -24.5t10.5 -19.5t11 -17t12.5 -18l9 -10.5t9 -8.5q-10 -2 -15 -2h-10q-35 0 -59 22q-20 19 -33 39.5t-18 37.5q-9 -18 -28 -39.5t-41 -39.5q-26 -21 -64 -21q-5 0 -11.5 0.5t-17.5 1.5q11 10 20 19t21 24q8 9 17 21t20 26
q18 24 27.5 39t20.5 32l4 6h76z" />
    <glyph glyph-name="tilde" unicode="&#x2dc;" horiz-adv-x="0" 
d="M223 565q-10 -25 -22.5 -45.5t-26.5 -32.5q-28 -27 -72 -27q-8 0 -18 0.5t-25 3.5l-28 5q-54 10 -89 13.5t-49 3.5q-51 0 -65 -30l-20 3q19 53 47.5 77t72.5 24q20 0 39.5 -2t56.5 -9l66 -12q13 -2 24 -3.5t22 -1.5q24 0 39.5 6.5t23.5 23.5l3 6z" />
    <glyph glyph-name="macron" unicode="&#xaf;" horiz-adv-x="0" 
d="M-86 513q10 1 14 1h14q11 0 22 -0.5t23 -0.5h17h68.5t38.5 1t24 3t20 7q-9 -19 -16.5 -31t-16.5 -19t-20.5 -9.5t-27.5 -2.5h-3h-22l-33 1l-40 1l-41 -2q-12 -1 -19 -1t-12 -0.5t-9 -1t-10 -1.5z" />
    <glyph glyph-name="macron" unicode="&#x2c9;" horiz-adv-x="0" 
d="M-86 513q10 1 14 1h14q11 0 22 -0.5t23 -0.5h17h68.5t38.5 1t24 3t20 7q-9 -19 -16.5 -31t-16.5 -19t-20.5 -9.5t-27.5 -2.5h-3h-22l-33 1l-40 1l-41 -2q-12 -1 -19 -1t-12 -0.5t-9 -1t-10 -1.5z" />
    <glyph glyph-name="breve" unicode="&#x2d8;" horiz-adv-x="0" 
d="M156 610q-8 -71 -45 -111.5t-93 -40.5q-47 0 -79.5 30t-38.5 78l50 49q4 -45 26 -72.5t55 -27.5q52 0 66 62z" />
    <glyph glyph-name="dotaccent" unicode="&#x2d9;" 
 />
    <glyph glyph-name="ring" unicode="&#x2da;" 
 />
    <glyph glyph-name="cedilla" unicode="&#xb8;" horiz-adv-x="0" 
d="M62 5q-15 -12 -15 -19q0 -3 5 -4l12 -3l9 -1q40 -9 40 -34q0 -19 -19 -44q-24 -31 -67 -49.5t-90 -18.5q-35 0 -56.5 9t-21.5 23q0 8 9 17q9 8 21 13t23 5q7 0 16 -3q3 0 14 -3l14 -4q10 -3 15.5 -3.5t13.5 -0.5q19 0 30.5 5.5t11.5 14.5q0 5 -4.5 7.5t-20.5 7.5l-13 4
q-24 7 -24 17q0 7 8 17l6.5 6.5t7.5 6.5q10 7 18.5 13t32.5 21h24z" />
    <glyph glyph-name="hungarumlaut" unicode="&#x2dd;" 
 />
    <glyph glyph-name="ogonek" unicode="&#x2db;" 
 />
    <glyph glyph-name="caron" unicode="&#x2c7;" horiz-adv-x="0" 
d="M-19 447q-4 14 -9 27t-18 41q-7 14 -12 24.5t-10.5 19t-11 16.5t-12.5 18q-6 8 -9 11.5t-9 8.5q10 2 15 2h10q36 0 59 -23q20 -18 33 -38.5t18 -37.5q9 18 27.5 39.5t41.5 39.5q27 21 63 21q6 0 12.5 -0.5t17.5 -2.5q-11 -10 -20 -19t-21 -23q-8 -9 -17 -21t-20 -27
q-17 -23 -26.5 -37.5t-21.5 -32.5l-4 -6h-76z" />
    <glyph glyph-name="Scaron" unicode="&#x160;" 
 />
    <glyph glyph-name="scaron" unicode="&#x161;" 
 />
    <glyph glyph-name="Yacute" unicode="&#xdd;" 
 />
    <glyph glyph-name="yacute" unicode="&#xfd;" 
 />
    <glyph glyph-name="Thorn" unicode="&#xde;" 
 />
    <glyph glyph-name="thorn" unicode="&#xfe;" 
 />
    <glyph glyph-name="Zcaron" unicode="&#x17d;" 
 />
    <glyph glyph-name="zcaron" unicode="&#x17e;" 
 />
    <glyph glyph-name="onehalf" unicode="&#xbd;" 
 />
    <glyph glyph-name="onequarter" unicode="&#xbc;" 
 />
    <glyph glyph-name="onesuperior" unicode="&#xb9;" 
 />
    <glyph glyph-name="threequarters" unicode="&#xbe;" 
 />
    <glyph glyph-name="threesuperior" unicode="&#xb3;" 
 />
    <glyph glyph-name="twosuperior" unicode="&#xb2;" 
 />
    <glyph glyph-name="brokenbar" unicode="&#xa6;" 
 />
    <glyph glyph-name="multiply" unicode="&#xd7;" 
 />
    <glyph glyph-name="lslash" unicode="&#x142;" 
 />
    <glyph glyph-name="Eth" unicode="&#xd0;" 
 />
    <glyph glyph-name="eth" unicode="&#xf0;" 
 />
    <glyph glyph-name="Lslash" unicode="&#x141;" 
 />
  </font>
</defs>
</svg>
